<?xml version="1.0" standalone="no"?>
<!DOCTYPE svg PUBLIC "-//W3C//DTD SVG 1.1//EN" "http://www.w3.org/Graphics/SVG/1.1/DTD/svg11.dtd" >
<svg xmlns="http://www.w3.org/2000/svg">
<metadata>
Created by FontForge 20120731 at Sat Apr  1 08:41:54 2017
 By admin
</metadata>
<defs>
<font id="iconfont" horiz-adv-x="1024" >
  <font-face 
    font-family="iconfont"
    font-weight="500"
    font-stretch="normal"
    units-per-em="1024"
    panose-1="2 0 6 3 0 0 0 0 0 0"
    ascent="896"
    descent="-128"
    x-height="792"
    bbox="-708 -232 1297 896.252"
    underline-thickness="0"
    underline-position="0"
    unicode-range="U+0078-E708"
  />
<missing-glyph 
 />
    <glyph glyph-name=".notdef" 
 />
    <glyph glyph-name=".notdef" 
 />
    <glyph glyph-name=".null" horiz-adv-x="0" 
 />
    <glyph glyph-name="nonmarkingreturn" horiz-adv-x="341" 
 />
    <glyph glyph-name="x" unicode="x" horiz-adv-x="1001" 
d="M281 543q-27 -1 -53 -1h-83q-18 0 -36.5 -6t-32.5 -18.5t-23 -32t-9 -45.5v-76h912v41q0 16 -0.5 30t-0.5 18q0 13 -5 29t-17 29.5t-31.5 22.5t-49.5 9h-133v-97h-438v97zM955 310v-52q0 -23 0.5 -52t0.5 -58t-10.5 -47.5t-26 -30t-33 -16t-31.5 -4.5q-14 -1 -29.5 -0.5
t-29.5 0.5h-32l-45 128h-439l-44 -128h-29h-34q-20 0 -45 1q-25 0 -41 9.5t-25.5 23t-13.5 29.5t-4 30v167h911zM163 247q-12 0 -21 -8.5t-9 -21.5t9 -21.5t21 -8.5q13 0 22 8.5t9 21.5t-9 21.5t-22 8.5zM316 123q-8 -26 -14 -48q-5 -19 -10.5 -37t-7.5 -25t-3 -15t1 -14.5
t9.5 -10.5t21.5 -4h37h67h81h80h64h36q23 0 34 12t2 38q-5 13 -9.5 30.5t-9.5 34.5q-5 19 -11 39h-368zM336 498v228q0 11 2.5 23t10 21.5t20.5 15.5t34 6h188q31 0 51.5 -14.5t20.5 -52.5v-227h-327z" />
    <glyph glyph-name="quanbudingdan" unicode="&#xe6b7;" horiz-adv-x="1000" 
d="M875 675h-63v63q0 25 -18 43.5t-44 18.5h-625q-26 0 -44.5 -18.5t-18.5 -43.5v-750q0 -26 18.5 -44.5t44.5 -18.5h63v-63q0 -25 18 -43.5t44 -18.5h625q26 0 44.5 18.5t18.5 43.5v750q0 26 -18.5 44.5t-44.5 18.5zM404 675h252q13 0 22.5 -9t9.5 -22t-9.5 -22.5
t-22.5 -9.5h-252q-13 0 -22.5 9.5t-9.5 22.5t9.5 22t22.5 9zM216 488h440q13 0 22.5 -9.5t9.5 -22.5t-9.5 -22t-22.5 -9h-440q-13 0 -22 9t-9 22t9 22.5t22 9.5zM216 300h440q13 0 22.5 -9t9.5 -22t-9.5 -22t-22.5 -9h-440q-13 0 -22 9t-9 22t9 22t22 9zM216 50q-13 0 -22 9
t-9 22t9 22t22 9h440q13 0 22.5 -9t9.5 -22t-9.5 -22t-22.5 -9h-440zM875 -138h-625v63h500q26 0 44 18.5t18 44.5v624h63v-750z" />
    <glyph glyph-name="pdf" unicode="&#xe684;" 
d="M484 670h355v-29h-355v29zM484 599h355v-15h-355v15zM284 129h299v-28h-299v28zM284 58h299v-14h-299v14zM484 542h355v-14h-355v14zM484 485h355v-14h-355v14zM484 428h355v-14h-355v14zM484 371h355v-14h-355v14zM284 314h555v-14h-555v14zM284 257h555v-14h-555v14z
M284 200h555v-14h-555v14zM284 1h299v-14h-299v14zM284 -56h299v-14h-299v14zM199 798v-86h-99v-298h99v-612h398h71h29h14h2l211 212v2v782h-725zM184 465q-22 -32 -44 -19q-19 10 -11 32q3 9 12 17q15 15 52 29q17 34 31 67q-11 23 -14 48q-5 35 18 43q19 7 30 -12
q7 -13 4 -32q-3 -16 -15 -46q14 -24 37 -44q35 5 54 3q20 -3 27 -16t-1 -25t-26 -12q-24 0 -60 27q-36 -7 -70 -18q-14 -28 -24 -42zM711 -139v155h155zM882 58h-214v-213h-426v569h156v298h-156v43h640v-697z" />
    <glyph glyph-name="title-left" unicode="&#xe608;" 
d="M284 286l226 227l-45 45l-271 -272l271 -271l45 45zM604 286l226 227l-45 45l-271 -272l271 -271l45 45z" />
    <glyph glyph-name="book" unicode="&#xe69a;" 
d="M726 689q-69 0 -128.5 -12t-85.5 -35q-27 23 -86.5 35t-128.5 12q-93 0 -163 -21t-70 -60v-560q0 -8 6.5 -13.5t15.5 -4.5q95 17 211 17t211 -17h4h0.5t1 0.5t0.5 0t1 -0.5q95 17 211 17t212 -17h3q6 0 11 4q7 6 7 14v560q0 39 -70 60t-163 21v0zM297 84q-104 0 -196 -14
v538q0 8 21 18t68.5 18.5t106.5 8.5t106.5 -8.5t69 -18.5t21.5 -18v-538q-93 14 -197 14v0zM923 70q-91 13 -196.5 13t-196.5 -13v538q0 8 21 18t68.5 18.5t106.5 8.5t106.5 -8.5t69 -18.5t21.5 -18v-538v0zM923 70z" />
    <glyph glyph-name="yuanquan" unicode="&#xe691;" 
d="M512 798q-101 0 -193.5 -39.5t-159 -106t-106 -159t-39.5 -193.5t39.5 -193.5t106 -159t159 -106t193.5 -39.5t193.5 39.5t159 106t106 159t39.5 193.5t-39.5 193.5t-106 159t-159 106t-193.5 39.5zM512 -140q-182 0 -311 129t-129 311t129 311t311 129t311 -129
t129 -311t-129 -311t-311 -129z" />
    <glyph glyph-name="shujuku" unicode="&#xe6bc;" 
d="M134 -63h377h379v212h-756v-212zM134 194h378h378v212h-756v-212zM516 663h-382v-212h378h378v212h-374z" />
    <glyph glyph-name="youxiang" unicode="&#xe6bd;" 
d="M1 -50l320 287l192 -159l192 159l319 -287h-1023v0zM736 269l288 224v-479l-288 255v0zM1 14v479l288 -224l-288 -255v0zM513 141l-512 416v96h1023v-96l-511 -416v0z" />
    <glyph glyph-name="weiwancheng" unicode="&#xe69b;" 
d="M1004 320h-472v472q0 8 -6 14t-14 6q-104 0 -199 -40.5t-163.5 -109t-109 -163.5t-40.5 -199t40.5 -199t109 -163.5t163.5 -109t199 -40.5t199 40.5t163.5 109t109 163.5t40.5 199q0 8 -6 14t-14 6zM512 -172q-96 0 -183.5 37.5t-151 100.5t-100.5 150.5t-37 183.5
q0 125 60 232t164 171t228 69v-472q0 -8 6 -14t14 -6h472q-5 -124 -69 -228t-171 -164t-232 -60z" />
    <glyph glyph-name="del" unicode="&#xe660;" 
d="M561 282l220 221q8 8 8 19t-7.5 18.5t-18.5 7.5t-19 -7l-221 -221l-221 221q-7 7 -18 7t-19 -7.5t-8 -18.5t8 -19l221 -221l-221 -220q-8 -8 -8 -19t8 -18.5t19 -7.5t18 7l221 221l221 -221q8 -7 19 -7t18.5 7.5t7.5 18.5t-8 19z" />
    <glyph glyph-name="fabu" unicode="&#xe630;" 
d="M280 -5h5h-5zM748 -5h6h-6zM555 216l-1 -1v0zM689 602h-2h2zM747 -5h-2h2zM689 -5h-2h2zM831 282v0v-305v-1v0q0 -8 -6 -14t-14 -6v0h-606h-1q-8 0 -13 6q-7 6 -6 15v0v304v2v297v2q0 8 6 14q5 5 13 6h1h484v0h92q8 0 15 -6q6 -6 6 -14t-6 -13.5t-14 -5.5v0h-557v-568
h566v286q0 8 6 15q6 5 14 5t14 -5.5t6 -13.5zM904 532q0 8 -6 13.5t-14 5.5q-9 0 -15 -6l-341 -333q0 -1 -1 -1q-5 -5 -5 -13t6 -13.5t14 -5.5t14 5v0l342 334q6 6 6 14zM554 215v0l1 1zM555 216l-1 -1v0zM586 185h-1v0h1z" />
    <glyph glyph-name="xia" unicode="&#xe68c;" 
d="M511 -150q91 0 174 35.5t143 95.5t95.5 143.5t35.5 174.5t-35.5 174.5t-95.5 143.5t-143 95.5t-174 35.5t-174 -35.5t-143 -95.5t-95.5 -143.5t-35.5 -174.5t35.5 -174.5t95.5 -143.5t143 -95.5t174 -35.5zM511 712q112 0 207 -55.5t150 -150.5t55 -207t-55 -207
t-150 -150.5t-207 -55.5t-207 55.5t-150.5 150.5t-55.5 207t55.5 207t150.5 150.5t207 55.5zM538 106l25 -25l218 218l-218 218l-25 -25l175 -175h-435v-36h435z" />
    <glyph glyph-name="ttpodicon" unicode="&#xe700;" 
d="M947 651.5q-10 7.5 -22 3.5l-847 -262q-15 -5 -16 -20t13 -22l297 -143l-5 -143q0 -14 12.5 -20.5t24.5 1.5l134 70q8 5 9.5 14.5t-4 17t-15 9.5t-17.5 -4l-96 -44l4 112q0 15 -13 21l-260 126l760 232l-79 -602l-200 120q-9 5 -18 2.5t-14 -10.5t-2.5 -17.5t10.5 -13.5
l232 -139q6 -3 12 -3q5 0 10 3q12 5 13 18l86 674q1 12 -9 19.5zM847 536q-7 7 -16.5 7t-16.5 -7l-343 -294q-7 -7 -7 -16.5t7 -16t16.5 -6.5t16.5 6l343 295q7 6 7 15.5t-7 16.5z" />
    <glyph glyph-name="22" unicode="&#xe61d;" 
d="M512 635h-447v-670h4h53h390h390h53h4v670h-447zM883 605l-371 -346l-371 346h742zM883 -5h-742l283 264l-22 21l-305 -285h-2v610h2l415 -387l415 387h2v-610h-2l-305 285l-22 -21z" />
    <glyph glyph-name="information" unicode="&#xe6fe;" 
d="M512 800q-139 0 -257 -68.5t-186.5 -186.5t-68.5 -257t68.5 -257t186.5 -186.5t257 -68.5t257 68.5t186.5 186.5t68.5 257t-68.5 257t-186.5 186.5t-257 68.5zM448 588q0 8 6 14t14 6h88q8 0 14 -6t6 -14v-88q0 -8 -6 -14t-14 -6h-88q-8 0 -14 6t-6 14v88zM640 -12
q0 -8 -6 -14t-14 -6h-216q-8 0 -14 6t-6 14v24q0 8 6 14t14 6h44v256h-44q-8 0 -14 6t-6 14v24q0 8 6 14t14 6h152q8 0 14 -6t6 -14v-300h44q8 0 14 -6t6 -14v-24z" />
    <glyph glyph-name="huanyihuan" unicode="&#xe69c;" 
d="M926 -145h-166q117 68 189 186t72 256q0 104 -39.5 199t-107 164.5t-162.5 110.5t-201 41q-13 0 -22.5 -9.5t-9.5 -22.5t9.5 -22.5t22.5 -9.5q125 0 228 -61t161 -164.5t58 -225.5q0 -139 -81.5 -252.5t-205.5 -163.5v229q0 13 -9.5 22.5t-22.5 9.5t-22.5 -9.5
t-9.5 -22.5v-319h319q13 0 22.5 9.5t9.5 22.5t-9.5 22.5t-22.5 9.5zM511 -145q-125 0 -228 61t-160.5 164.5t-57.5 225.5q0 139 81 252.5t206 163.5v-229q0 -13 9 -22.5t22.5 -9.5t22.5 9.5t9 22.5v319h-319q-13 0 -22 -9.5t-9 -22.5t9 -22.5t22 -9.5h159
q-114 -70 -184 -188t-70 -254q0 -104 39.5 -199t107.5 -164.5t163 -110.5t200 -41q13 0 22.5 9.5t9.5 22.5t-9.5 22.5t-22.5 9.5z" />
    <glyph glyph-name="lingdang" unicode="&#xe61c;" 
d="M970 58q-79 117 -123 224.5t-48 229.5q-3 97 -60 166.5t-154 96.5q-166 47 -285 -95q-66 -80 -78 -220q-10 -112 -45 -195q-13 -32 -33 -66.5t-45 -75t-39 -64.5q-23 -41 -15 -52q7 -9 23 -15.5t31 -6.5q91 -1 413 -1q327 0 419 1q15 0 31 6.5t24 15.5q5 5 -1 21.5
t-15 29.5v0zM515 -207q67 0 105.5 38.5t37.5 105.5h-284q-3 -65 36 -104.5t105 -39.5v0z" />
    <glyph glyph-name="wenjianjia3" unicode="&#xe60a;" 
d="M921 332h-74v140q0 27 -19 46t-46 19h-328q-15 0 -25.5 10.5t-10.5 25.5v0q0 26 -19 45t-46 19h-230q-27 0 -46 -19t-19 -45v-546q0 -27 19 -45.5t46 -18.5v0h660q27 0 53 19t36 45l89 241q10 26 -1.5 45t-38.5 19zM351 571q1 -42 31 -71.5t72 -29.5h326v-138h-520
q-26 0 -52 -18.5t-36 -45.5l-47 -126v429h226z" />
    <glyph glyph-name="xinzengrenwu" unicode="&#xe701;" 
d="M714 251q-54 0 -100 -27q-69 -40 -92 -115v0q-8 -29 -8 -59q0 -83 58.5 -142t141.5 -59t142 59t59 142t-59 142t-142 59zM714.5 -120q-70.5 0 -120 50t-49.5 120q0 30 10 59v0q16 43 53 73t84 36q-4 6 -11 6q7 0 11 -6q11 2 22 2q71 0 120.5 -50t49.5 -120t-49.5 -120
t-120 -50zM815 73h-75v78q0 5 -3.5 8.5t-8.5 3.5h-24q-6 0 -10 -4v-37q0 -4 -3 -8v-41h-74q-5 0 -8.5 -3.5t-3.5 -8.5v-23q0 -5 3.5 -8.5t8.5 -3.5h74v-79q0 -5 4 -8.5t9 -3.5h24q5 0 8.5 3.5t3.5 8.5v79h75q5 0 8.5 3.5t3.5 8.5v23q0 5 -3.5 8.5t-8.5 3.5zM694 159
q-3 -3 -3 -8v-37q3 4 3 8v37zM577 362q-10 7 -22 5t-19 -10l-138 -172l-45 51q-8 9 -20 10t-21 -6q-9 -8 -10 -20t7 -20l69 -77q8 -10 21 -10h1q14 1 22 11l160 198q8 9 6 21t-11 19zM184 -46v650h45q2 33 24 59h-98q-13 0 -21.5 -8.5t-8.5 -21.5v-709q0 -12 8.5 -20.5
t21.5 -8.5h359q-16 28 -24 59h-306zM691 604v-330q25 5 51 5h9v354q0 13 -9 21.5t-21 8.5h-98q22 -26 24 -59h44zM330 527h215q28 0 47.5 19.5t19.5 47.5v3v7q-3 23 -19 39.5t-39 19.5q-5 1 -9 1h-28v5q0 27 -19.5 46.5t-47.5 19.5h-24q-28 0 -47.5 -19.5t-19.5 -46.5v-5
h-29q-4 0 -9 -1q-22 -3 -38.5 -19.5t-18.5 -39.5v-7v-3q0 -28 19.5 -47.5t46.5 -19.5z" />
    <glyph glyph-name="gongyingshangguanli" unicode="&#xe6b3;" 
d="M509 399q107 0 197.5 23.5t143 63.5t52.5 88t-52.5 88t-143 63.5t-197.5 23.5t-198 -23.5t-143.5 -63.5t-52.5 -88t52.5 -88t143.5 -63.5t198 -23.5zM509 351q-107 0 -198 23.5t-143.5 63.5t-52.5 88v-134q0 -48 52.5 -88t143.5 -63.5t198 -23.5t197.5 23.5t143 63.5
t52.5 88v134q0 -48 -52.5 -88t-143 -63.5t-197.5 -23.5zM509 169q-107 0 -198 23t-143.5 63.5t-52.5 88.5v-134q0 -48 52.5 -88t143.5 -63.5t198 -23.5t197.5 23.5t143 63.5t52.5 88v134q0 -48 -52.5 -88.5t-143 -63.5t-197.5 -23zM509 -13q-107 0 -198 23t-143.5 63.5
t-52.5 88.5v-134q0 -48 52.5 -88.5t143.5 -63.5t198 -23t197.5 23t143 63.5t52.5 88.5v134q0 -48 -52.5 -88.5t-143 -63.5t-197.5 -23z" />
    <glyph glyph-name="shoucanggongyingshang" unicode="&#xe6b4;" 
d="M782 343q0 -23 -14 -46q11 0 14 -1v47zM423.5 395q97.5 0 180 22t130.5 60.5t48 84t-48 84.5t-130.5 61t-180 22t-180.5 -22t-131 -61t-48 -84.5t48 -84t131 -60.5t180.5 -22zM423 47q37 0 73 3q3 75 45 135q-58 -9 -118 -9q-97 0 -180 22.5t-131 61t-48 83.5v-129
q0 -45 48 -84t131 -61t180 -22zM423 221q89 0 168 19q58 47 132 56q59 42 59 92v129q0 -45 -48 -83.5t-130.5 -61t-180 -22.5t-180.5 22.5t-131 61t-48 83.5v-129q0 -46 48 -84.5t131 -60.5t180 -22zM423 2q-97 0 -180 22.5t-131 61t-48 84.5v-130q0 -45 48 -84t131 -61
t180 -22q65 0 126 10q-42 55 -51 123q-37 -4 -75 -4zM961.5 123q-3.5 10 -13.5 11l-125 19l-56 113q-4 9 -15 9t-16 -9l-56 -113l-125 -19q-10 -1 -13.5 -11t4.5 -18l90 -88l-21 -124q-2 -11 6.5 -17t18.5 -1l112 58l112 -58q3 -2 7 -2q6 0 10 3q9 6 7 17l-21 124l90 88
q8 8 4.5 18z" />
    <glyph glyph-name="xinzenggongyingshang" unicode="&#xe6b5;" 
d="M782 363q0 -23 -14 -46q11 -1 14 -1v47zM423.5 414q97.5 0 180 22.5t130.5 61t48 84t-48 84t-130.5 61t-180 22.5t-180.5 -22.5t-131 -61t-48 -84t48 -84t131 -61t180.5 -22.5zM423 66q37 0 73 4q3 74 45 135q-58 -9 -118 -9q-97 0 -180 22t-131 60.5t-48 84.5v-130
q0 -45 48 -83.5t131 -61t180 -22.5zM423 240q89 0 168 20q58 46 132 55q59 42 59 92v130q0 -46 -48 -84.5t-130.5 -61t-180 -22.5t-180.5 22.5t-131 61t-48 84.5v-130q0 -45 48 -83.5t131 -61t180 -22.5zM423 22q-97 0 -180 22t-131 60.5t-48 84.5v-129q0 -46 48 -84.5
t131 -61t180 -22.5q65 0 126 11q-42 55 -51 122q-37 -3 -75 -3zM753.5 262q-83.5 0 -143 -59.5t-59.5 -143t59.5 -143t143 -59.5t143 59.5t59.5 143t-59.5 143t-143 59.5zM858 25h-70v-70h-69v70h-70v69h70v70h69v-70h70v-69z" />
    <glyph glyph-name="icon" unicode="&#xe6b6;" 
d="M468.5 185q109.5 0 202 24t146.5 65.5t54 89.5v137q0 -48 -54 -89.5t-146.5 -65.5t-202 -24t-202.5 24t-147 65.5t-54 89.5v-137q0 -48 54 -89.5t147 -65.5t202.5 -24zM468.5 371q109.5 0 202 24t146.5 65.5t54 90t-54 90t-146.5 65.5t-202 24t-202.5 -24t-147 -65.5
t-54 -90t54 -90t147 -65.5t202.5 -24zM468 -1q91 0 173 17q12 65 63 108.5t118 43.5q24 0 47 -6q2 8 2 16v137q0 -48 -54 -89.5t-146.5 -65.5t-202 -24t-202.5 24t-147 65.5t-54 89.5v-137q0 -49 54 -90t147 -65t202 -24zM639 -33q-81 -17 -171 -17q-109 0 -202 24t-147 65
t-54 90v-137q0 -49 54 -90t147 -65t202 -24q128 0 232 32q-55 49 -61 122zM804 60q-25 0 -42.5 -17.5t-17.5 -42.5t17.5 -42.5t42.5 -17.5t42.5 17.5t17.5 42.5t-17.5 42.5t-42.5 17.5v0zM804 -40q-17 0 -29 11.5t-12 28.5t12 28.5t28.5 11.5t28.5 -11.5t12 -28.5t-12 -28.5
t-28 -11.5v0zM928 42h-12q-2 0 -3 2.5t1 4.5l8 9q6 6 6 14t-6 14l-32 32q-6 6 -14 6t-14 -6l-9 -8q-1 -2 -3 -2l-1 1q-3 1 -3 3v12q0 9 -5.5 15.5t-14.5 6.5h-45q-8 0 -14 -6.5t-6 -15.5v-12q0 -2 -2 -3q-1 -1 -2 -1q-2 0 -3 2l-8 8q-6 6 -14.5 6t-13.5 -6l-33 -32
q-5 -6 -5 -14t5 -14l9 -9q2 -1 1 -4t-4 -3h-12q-8 0 -14.5 -5.5t-6.5 -13.5v-46q0 -8 6.5 -14t14.5 -6h12q3 0 4 -2.5t-1 -4.5l-9 -8q-5 -6 -5 -14t5 -14l33 -32q5 -6 13.5 -6t14.5 6l8 8q1 1 3 1h2q2 -1 2 -4v-12q0 -8 6 -14t14 -6h45q9 0 14.5 6t5.5 14v12q0 3 3 4h1
q2 0 3 -1l9 -8q6 -6 14 -6t14 6l32 32q6 6 6 14t-6 14l-8 8q-2 2 -1 4.5t3 2.5h12q9 0 15 6t6 14v46q0 8 -6 13.5t-15 5.5v0zM929 -23h-13q-16 0 -22 -14.5t5 -26.5l9 -8l-32 -32l-9 8q-7 7 -17 7q-4 0 -9 -2q-15 -6 -15 -22v-12h-45v12q0 16 -15 22q-4 2 -9 2q-10 0 -17 -7
l-8 -8l-33 32l9 8q11 12 5 26.5t-22 14.5h-13v46h13q16 0 22 14.5t-5 25.5l-9 9l33 32l8 -8q7 -7 17 -7q5 0 9 1q15 6 15 22v14h45v-14q0 -16 15 -22q5 -1 9 -1q10 0 17 7l9 8l32 -32l-9 -9q-11 -11 -5 -25.5t22 -14.5h13v-46v0zM929 -23z" />
    <glyph glyph-name="xiazai" unicode="&#xe670;" horiz-adv-x="1025" 
d="M547 -102v465h-34v-465l-123 123l-24 -25l164 -164l164 164l-24 25zM838 500v3.5v4.5q0 110 -77.5 187.5t-186.5 77.5q-78 0 -142 -41.5t-97 -109.5q-29 14 -61 14q-50 0 -88 -32t-47 -81q-61 -21 -99.5 -74t-38.5 -120q0 -85 60 -144.5t145 -60.5h205v35h-205
q-71 0 -121 50t-50 120q0 55 32 99.5t84 62.5l19 6l3 20q6 37 34.5 61t66.5 24q24 0 46 -11l31 -15l15 31q28 60 85 95.5t123 35.5q95 0 162.5 -67.5t67.5 -162.5v-2v-5l-1 -35h35q63 0 108 -45.5t45 -108.5t-45 -108t-108 -45h-8h-181v-35h189v0q78 1 132.5 56t54.5 132.5
t-55 132.5t-132 55z" />
    <glyph glyph-name="yanzhengma" unicode="&#xe633;" 
d="M855 628l-316 102q-27 9 -54 0l-316 -102q-20 -7 -32 -24t-12 -38v-224q0 -97 44 -184.5t122 -145.5l183 -134q17 -12 38 -12t38 12l183 134q78 58 122 145.5t44 184.5v224q0 21 -12 38t-32 24zM856 342q0 -87 -39.5 -165.5t-109.5 -129.5l-182 -134q-13 -9 -26 0
l-182 134q-70 52 -109.5 130t-39.5 165v224q0 16 15 21l316 102q6 2 13 2t13 -2l316 -102q15 -5 15 -21v-224zM706 490h-388q-9 0 -15 -6t-6 -15t6 -15.5t15 -6.5h172v-321q0 -9 6.5 -15t15.5 -6t15.5 6t6.5 15v321h172q9 0 15 6.5t6 15.5t-6 15t-15 6z" />
    <glyph glyph-name="wuliaoguanli" unicode="&#xe6e1;" 
d="M781 12h-258q-30 0 -42.5 12.5t-22.5 53.5q-31 133 -123 512q-15 68 -32 82q-6 6 -17 7l1 10q14 -1 23 -9q19 -17 35 -88q91 -376 123 -512q9 -38 19 -47.5t36 -9.5h258v-11zM826 92h-371l-88 365h594zM463 102h356l127 345h-566zM427 448l-7 7l167 177l156 -177l-8 -6
l-148 168zM890 451l-155 164l-70 -76l-7 7l77 84l162 -172zM528.5 -97q-24.5 0 -42 17.5t-17.5 42.5t17.5 42.5t42 17.5t42 -17.5t17.5 -42.5t-17.5 -42.5t-42 -17.5zM528.5 12q-20.5 0 -35 -14.5t-14.5 -35t14.5 -35t35 -14.5t35 14.5t14.5 35t-14.5 35t-35 14.5zM780 -97
q-25 0 -42.5 17.5t-17.5 42.5t17.5 42.5t42.5 17.5t42.5 -17.5t17.5 -42.5t-17.5 -42.5t-42.5 -17.5zM779.5 12q-20.5 0 -35 -14.5t-14.5 -35t14.5 -35t35 -14.5t35 14.5t14.5 35t-14.5 35t-35 14.5zM269 655h-187q-8 0 -14 6.5t-6 15.5v12q0 9 6 15.5t14 6.5h187
q8 0 14 -6.5t6 -15.5v-12q0 -9 -6 -15.5t-14 -6.5zM82 701q-9 0 -9 -12v-12q0 -12 9 -12h187q10 0 10 12v12q0 12 -10 12h-187zM801 172l-9 4l82 213l9 -4z" />
    <glyph glyph-name="gangchang2" unicode="&#xe6ea;" 
d="M895 -11v388l-168 133v-133l-168 133v-133l-168 133v-133h-262v-388h-66v-64h898v64h-66v0zM940 -55h-856v24h65v387h262v111l148 -110h20v112l148 -113h20v113l128 -103v-397h65v-24v0zM306 715h-92l-51 -318h194zM231 694h58l44 -276h-146zM496 802q-4 2 -12.5 3.5
t-34.5 2t-52.5 -5.5t-64 -24.5t-72.5 -48.5q5 3 13.5 7t37 12.5t58.5 11t73.5 -4.5t85.5 -26q6 -2 17 -4.5t42.5 -6t61.5 -1.5t68.5 14t68.5 35v0q-6 -2 -16.5 -4.5t-42 -5.5t-64 -1t-78.5 13.5t-89 33.5zM492 762q-2 1 -7 3t-21.5 6t-33.5 5.5t-42 -0.5t-50 -10
q4 2 10.5 4.5t26.5 8.5t38 9t41 2.5t40 -7.5q137 -55 221 -41q-6 -1 -15.5 -2.5t-38 -4t-54.5 -2t-58.5 7.5t-56.5 21zM392 309v-67h139v67h-139zM510 268h-98v16h98v-16zM551 309v-67h139v67h-139zM669 268h-97v16h97v-16zM716 309v-67h139v67h-139zM835 268h-98v16h98v-16
z" />
    <glyph glyph-name="buxiugang4" unicode="&#xe6e2;" 
d="M190 402q-5 0 -8 4q-6 7 1 14l331 332q78 78 189 78q23 0 46 -5q6 -1 8 -6.5t-2 -10.5l-375 -374q-3 -4 -9 -3q-25 5 -51 5q-67 0 -125 -32q-3 -2 -5 -2zM703 809q-102 0 -174 -72l-294 -294q41 14 85 14q25 0 50 -5l356 356q-12 1 -23 1zM565 274h-2q-5 1 -7 6
q-22 50 -62 87.5t-92 55.5q-5 1 -6.5 7t2.5 10l375 374q5 5 11 3q56 -18 99.5 -58.5t65.5 -95.5q3 -7 -2 -11l-375 -375q-3 -3 -7 -3zM424 436q98 -40 144 -134l360 359q-21 48 -58.5 83t-86.5 52zM553 42q-3 0 -6 2q-7 5 -3 13q32 58 32 123q0 36 -10 71q-2 5 2 10l375 374
q4 4 10 2.5t7 -7.5q9 -32 9 -66q0 -111 -78 -189l-331 -330q-3 -3 -7 -3v0zM587 250q9 -34 9 -70q0 -42 -13 -83l293 293q72 72 72 174q0 22 -4 43zM320 -86q-110 0 -188 78t-78 188.5t78 188t188 77.5t188 -77.5t78 -188t-78 -188.5t-188 -78zM319.5 426
q-101.5 0 -173.5 -72t-72 -173.5t72 -173.5t173.5 -72t173.5 72t72 173.5t-72 173.5t-173.5 72z" />
    <glyph glyph-name="55yewushenqingguidang" unicode="&#xe6bf;" 
d="M214 810h-197q-7 0 -11.5 -5t-4.5 -11v-749q0 -7 4.5 -11.5t11.5 -4.5h197q7 0 11.5 4.5t4.5 11.5v749q0 6 -4.5 11t-11.5 5zM198 61h-165v717h165v-717zM77 649h76v-32h-76v32zM77 436h76v-31h-76v31zM77 543h76v-32h-76v32zM337 649h76v-32h-76v32zM338 436h75v-31h-75
v31zM337 543h76v-32h-76v32zM647 651h76v-32h-76v32zM647 546h76v-32h-76v32zM607 780h161v-290q6 -1 17 -5.5t15 -5.5v317q0 7 -4.5 11.5t-11.5 4.5h-193q-7 0 -11.5 -4.5t-4.5 -11.5v-314q6 3 17.5 5.5t14.5 3.5v289zM288 61v717h160v-346q17 11 32 18v344q0 6 -5 11
t-11 5h-192q-7 0 -11.5 -5t-4.5 -11v-749q0 -7 4.5 -11.5t11.5 -4.5h48q-5 16 -9 32h-23zM770 471q-16 4 -31 7q-33 6 -64 6q-51 0 -101 -15q-16 -4 -31 -11q-9 -4 -21 -9q-16 -8 -32 -18q-74 -47 -118.5 -125t-44.5 -170q0 -34 7 -68q3 -16 8 -32q33 -109 125 -178.5
t208 -69.5q95 0 175 46.5t126.5 127t46.5 174.5q0 118 -71 210.5t-182 124.5zM675 -180q-103 0 -185.5 60.5t-114.5 155.5q-5 17 -9 32q-7 35 -7 68q0 78 35 145t96 111q15 10 32 20q19 11 21 11q15 8 31 13q50 17 101 17q32 0 63 -7q16 -3 32 -8q98 -31 160 -114t62 -188
q0 -131 -93 -223.5t-224 -92.5zM765 202h-180q-6 0 -11 4.5t-5 11.5t5 11.5t11 4.5h180q7 0 11.5 -4.5t4.5 -11.5t-4.5 -11.5t-11.5 -4.5zM765 107h-180q-6 0 -11 4.5t-5 11t5 11.5t11 5h180q7 0 11.5 -5t4.5 -11.5t-4.5 -11t-11.5 -4.5zM765 11h-180q-6 0 -11 4.5t-5 11
t5 11.5t11 5h180q7 0 11.5 -5t4.5 -11.5t-4.5 -11t-11.5 -4.5z" />
    <glyph glyph-name="56gongwenshenqingguidang" unicode="&#xe6c0;" 
d="M703 201q-4 9 -6 14q-2 6 -5 10.5t-8.5 7.5t-13.5 3t-13 -3t-8.5 -8t-5.5 -12q-1 -2 -5 -12l-48 -122q-3 -6 -4 -11q-2 -4 -2 -8q0 -6 5.5 -11.5t13.5 -5.5t11.5 5t9.5 19l8 24h76l9 -24q1 -1 2.5 -4.5t1.5 -5.5q3 -5 5 -8t5.5 -4.5t7.5 -1.5q8 0 13.5 5.5t5.5 11.5
q0 7 -6 20zM642 119l28 77l28 -77h-56zM214 810h-198q-6 0 -11 -5t-5 -11v-749q0 -7 5 -11.5t11 -4.5h198q7 0 11.5 4.5t4.5 11.5v749q0 6 -4.5 11t-11.5 5zM198 61h-166v717h166v-717zM77 649h76v-32h-76v32zM77 436h76v-31h-76v31zM77 543h76v-32h-76v32zM337 649h76v-32
h-76v32zM337 436h76v-31h-76v31zM337 543h76v-32h-76v32zM647 651h76v-32h-76v32zM647 546h76v-32h-76v32zM607 780h161v-290q6 -1 17 -5.5t15 -5.5v317q0 7 -5 11.5t-11 4.5h-193q-7 0 -11.5 -4.5t-4.5 -11.5v-314q6 3 17 5.5t15 3.5v289zM287 61v717h161v-346q16 11 31 18
v344q0 6 -4.5 11t-11.5 5h-192q-6 0 -11 -5t-5 -11v-749q0 -7 5 -11.5t11 -4.5h48q-5 16 -8 32h-24zM771 471q-16 4 -32 7q-33 6 -63 6q-52 0 -101 -15q-16 -4 -32 -11q-9 -4 -21 -9q-15 -8 -31 -18q-75 -47 -119.5 -125t-44.5 -170q0 -34 7 -68q3 -16 8 -32
q33 -109 125 -178.5t209 -69.5q94 0 174.5 46.5t127 127t46.5 174.5q0 118 -71.5 210.5t-181.5 124.5zM676 -180q-104 0 -186.5 60.5t-114.5 155.5q-5 17 -8 32q-8 34 -8 68q0 78 35.5 145t96.5 111q15 10 31 20q20 11 21 11q16 8 32 13q49 17 101 17q32 0 63 -7
q15 -3 32 -8q97 -31 159 -114t62 -188q0 -131 -93 -223.5t-223 -92.5z" />
    <glyph glyph-name="57qitashenqingguidang" unicode="&#xe6c1;" 
d="M215 810h-198q-7 0 -11.5 -5t-4.5 -11v-749q0 -7 4.5 -11.5t11.5 -4.5h198q6 0 11 4.5t5 11.5v749q0 6 -5 11t-11 5zM199 61h-166v717h166v-717v0zM78 649h75v-32h-75v32zM78 436h76v-31h-76v31zM78 543h75v-32h-75v32zM338 649h76v-32h-76v32zM338 436h76v-31h-76v31z
M338 543h76v-32h-76v32zM647 651h76v-32h-76v32zM647 546h76v-32h-76v32zM607 780h161v-290q7 -1 17.5 -5.5t14.5 -5.5v317q0 7 -4.5 11.5t-11.5 4.5h-193q-6 0 -11 -4.5t-5 -11.5v-314q6 3 17.5 5.5t14.5 3.5v289zM288 61v717h160v-346q17 11 32 18v344q0 6 -4.5 11
t-11.5 5h-192q-7 0 -11.5 -5t-4.5 -11v-749q0 -7 4.5 -11.5t11.5 -4.5h48q-5 16 -8 32h-24zM770 471q-16 4 -32 7q-33 6 -63 6q-52 0 -101 -15q-16 -4 -32 -11q-8 -4 -20 -9q-16 -8 -32 -18q-75 -47 -119 -125t-44 -170q0 -34 6 -68l8 -32q33 -109 125 -178.5t209 -69.5
q94 0 174.5 46.5t127 127t46.5 174.5q0 118 -71 210.5t-182 124.5zM675 -180q-103 0 -185.5 60.5t-114.5 155.5q-6 17 -9 32q-8 34 -8 68q0 78 35.5 145t96.5 111q15 10 32 20q19 11 20 11q16 8 32 13q50 17 101 17q32 0 63 -7q16 -3 32 -8q97 -31 159 -114t62 -188
q0 -131 -92.5 -223.5t-223.5 -92.5zM546 178q0 10 7 17t17 7t17 -7t7 -17t-7 -17t-17 -7t-17 7t-7 17zM650 178q0 10 7 17t17 7t17 -7.5t7 -17t-7 -16.5t-17 -7t-17 7t-7 17zM755 178q0 10 7 17t16 7q10 0 17 -7.5t7 -17t-7 -16.5t-17 -7t-16.5 7t-6.5 17zM546 79q0 10 7 17
t17 7t17 -7t7 -17t-7 -17t-17 -7t-17 7t-7 17zM650 79q0 10 7 17t17 7t17 -7t7 -17t-7 -17t-17 -7t-17 7t-7 17zM755 79q0 10 7 17t16 7q10 0 17 -7t7 -17t-7 -17t-17 -7t-16.5 7t-6.5 17z" />
    <glyph glyph-name="redooutline" unicode="&#xe656;" 
d="M15 11h27l49 81q97 154 197 198q55 25 104 37.5t120 14.5v-207l497 332l-497 331v-208q-122 -5 -212 -40.5t-159 -104.5q-128 -129 -126 -344v-7v-83v0zM553 550v167l384 -250l-384 -251v168q-181 0 -294 -60t-203 -213q-1 9 -0.5 25t8.5 61.5t23.5 87t52 92t87.5 87
t135.5 61.5t190.5 25z" />
    <glyph glyph-name="fanhui" unicode="&#xe640;" 
d="M512.5 784q-98.5 0 -188.5 -38.5t-154.5 -103t-103 -154.5t-38.5 -188.5t38.5 -188t103 -154t154 -103t188 -38.5t188.5 38.5t154.5 103t103 154t38.5 188t-38.5 188.5t-103 154.5t-154 103t-188 38.5zM512 -141q-90 0 -171.5 35t-140.5 94t-94 140.5t-35 171.5t35 171.5
t94 140.5t140.5 94t171.5 35t171.5 -35t140.5 -94t94 -140.5t35 -171.5t-35 -171.5t-94 -140.5t-140.5 -94t-171.5 -35zM606 30l-266 266l266 267l46 -46l-221 -221l221 -220z" />
    <glyph glyph-name="01" unicode="&#xe6aa;" horiz-adv-x="1257" 
d="M1252 790h-2q-2 0 -2 -0.5t2 -0.5h2v1zM512 808q-103 0 -197 -40.5t-162 -108.5t-108.5 -162t-40.5 -197t40.5 -197t108.5 -162t162 -108.5t197 -40.5t197 40.5t162 108.5t108.5 162t40.5 197t-40.5 197t-108.5 162t-162 108.5t-197 40.5zM261 293l-32 18q-5 2 -6.5 7
t-0.5 9l1 4q82 173 83 178q3 6 7.5 7.5t7.5 0.5l3 -1l35 -18q6 -3 7 -8.5t0 -9.5l-2 -4l-80 -175q-2 -5 -5.5 -7.5t-6.5 -2.5t-5.5 0.5t-3.5 1.5h-2zM714 208q-9 -19 -37 -20q3 -20 -10 -31q-1 -2 -3.5 -4t-11.5 -5.5t-20 -1.5q1 -17 -15 -29q-2 -2 -6 -4.5t-17 -2t-26 10.5
l-2 -6t-8.5 -9.5t-18.5 -8.5q-17 -3 -27 7q-1 -1 -2.5 -3.5t-6 -7.5t-9 -8t-12 -2.5t-14.5 6.5q-2 1 -4 4t-5 12t4 18q-1 -2 -2.5 -4t-7 -7t-11 -7t-13 -0.5t-15.5 9.5q-1 1 -3 3.5t-3.5 11.5t5.5 20l-2.5 -2.5t-6 -4.5t-9.5 -4t-12 0.5t-14 8.5q-1 1 -3 4t-4.5 13t4.5 21
l-2.5 -2.5t-6.5 -5t-10 -4.5t-12.5 1.5t-14.5 9.5q-1 1 -2.5 3t-3.5 10.5t2 18.5l24 34l-33 44l11 24l39 -51q25 6 33 -10q1 -1 2 -3.5t3 -9.5t0 -16q5 -4 6 -6q17 4 27 -8q1 -1 2.5 -3t4 -8t2.5 -13q6 -3 8 -7q17 4 25 -6q1 -1 2.5 -3t4 -7.5t2.5 -10.5l16 -12
q14 -1 17 -13l14 -11q1 0 2.5 -0.5t5.5 -1t7 0.5t5.5 5t3.5 10l-53 42q-1 2 -1.5 4.5t2.5 6.5t12 3l79 -57q13 -6 20 7q8 11 -3 22l-84 63q0 2 -1 5t2 7.5t11 4.5l99 -73q14 -6 20 5q8 11 0 22l-109 83q-1 2 -1.5 5.5t3 7.5t12.5 2l113 -84q17 -5 24 9q10 16 -3 29l-160 145
q-3 1 -8.5 3t-18 -2t-20.5 -17q0 -2 -0.5 -5.5t-4 -13t-9 -17t-17 -14.5t-26.5 -10q-4 0 -10 1.5t-14 8.5t-4 18l2.5 5t4.5 15t3 26q1 23 16 42h-58l13 27h87q4 2 10.5 5.5t23 9t28.5 4.5q36 -2 45 -7q5 -2 13.5 -4.5t26.5 -6t27 -1.5l78 -168l-12 -30v0l2.5 -2.5t4.5 -7.5
t4 -12t0 -14.5t-5 -17.5zM792 309l-33 -16q-6 -2 -10 -0.5t-6 5.5l-3 3q-80 174 -84 177q-2 7 -0.5 11.5t3.5 6.5l3 2l36 18q6 2 10.5 0t6.5 -6l2 -4l83 -174q3 -8 1 -13t-5 -8z" />
    <glyph glyph-name="yunxingwancheng" unicode="&#xe69d;" 
d="M519 -110zM609 -114v0v0l-22 102q83 18 144.5 75t87 136.5t7.5 163t-75 145t-136.5 87t-163 7.5t-145 -75t-87 -136.5t-7.5 -163.5t81 -149l84 132l56 -256l-256 -56l57 89q-96 90 -124 218q-25 111 9 217.5t116.5 182t193.5 100t217.5 -9.5t182 -116.5t100 -193.5
t-9.5 -217.5t-116.5 -182t-193.5 -99.5v0zM526 163q-63 0 -107.5 44.5t-44.5 107.5t44.5 107t107.5 44t107.5 -44t44.5 -107t-44.5 -107.5t-107.5 -44.5v0v0zM611 368l-16 15q-5 5 -10 0l-90 -90l-43 43q-5 5 -10 0l-15 -15q-5 -5 0 -10l48 -48v-1l10 -10l3 -3v0l2 -2
q5 -5 10 0l111 111q5 5 0 10v0v0zM611 368z" />
    <glyph glyph-name="chexiao" unicode="&#xe636;" 
d="M915 -42q-16 0 -19 15q-2 7 -6 19t-21 43.5t-42 57.5q-108 113 -317 118v-161q0 -12 -11 -17.5t-21 1.5l-381 276q-8 6 -8 16t8 16l381 278q10 7 21 1.5t11 -17.5v-172q58 -2 117 -18q119 -31 195 -108q116 -119 113 -329q0 -8 -5.5 -13.5t-12.5 -5.5h-2v0v0zM490 251
q133 0 232 -41q80 -33 135 -92q17 -18 31 -38q-20 121 -95 198q-37 38 -85.5 63.5t-94 35t-71.5 13t-46 3.5q-3 0 -5 -1v0q-9 0 -15 6t-6 14v152l-327 -238l327 -237v142q0 9 6 14.5t14 5.5v0zM490 251z" />
    <glyph glyph-name="sousuo" unicode="&#xe613;" 
d="M704 162q45 54 65 118q16 51 16 108q0 98 -48.5 181t-131.5 131t-180.5 48t-180.5 -48t-131.5 -131t-48.5 -181t48.5 -181t131.5 -131.5t181 -48.5q128 0 225 81l228 -228q12 -12 28 -12t27 11v0q11 12 11 27.5t-12 27.5zM115 390q0 127 90 217t217 90t217.5 -90
t90.5 -217t-90.5 -217.5t-217.5 -90.5t-217 90.5t-90 217.5v0z" />
    <glyph glyph-name="renyuantianjia" unicode="&#xe6d0;" 
d="M672 173h-32v32q0 13 -9.5 22.5t-22.5 9.5t-22.5 -9.5t-9.5 -22.5v-32h-32q-13 0 -22.5 -9.5t-9.5 -22.5t9.5 -22.5t22.5 -9.5h32v-32q0 -13 9.5 -22.5t22.5 -9.5t22.5 9.5t9.5 22.5v32h32q13 0 22.5 9.5t9.5 22.5t-9.5 22.5t-22.5 9.5zM480 748q-98 0 -186.5 -38
t-153 -102.5t-102.5 -153t-38 -186.5t38 -186.5t102.5 -153t153 -102.5t186.5 -38t186.5 38t153 102.5t102.5 153t38 186.5t-38 186.5t-102.5 153t-153 102.5t-186.5 38zM480 -148q-113 0 -209 55.5t-151.5 151.5t-55.5 209q0 172 122 294t294 122t294 -122t122 -294
q0 -113 -55.5 -209t-151.5 -151.5t-209 -55.5zM663 268q-35 49 -88 74q33 37 33 86q0 53 -37.5 90.5t-90.5 37.5t-90.5 -37.5t-37.5 -90.5q0 -49 33 -86q-58 -27 -93.5 -81.5t-35.5 -120.5q0 -49 22 -96h75q-33 43 -33 96q0 66 47 113t113 47q52 0 95 -32h88zM480 364
q-26 0 -45 19t-19 45t19 45t45 19q27 0 45.5 -19t18.5 -45t-19 -45t-45 -19z" />
    <glyph glyph-name="dingdanhetong" unicode="&#xe61e;" 
d="M171 618v-683q0 -34 23.5 -58t57.5 -24h520q34 0 57.5 24t23.5 58v683q0 33 -23.5 57t-57.5 24h-197q-6 21 -23.5 35t-39.5 14t-39.5 -14t-23.5 -35h-197q-34 0 -57.5 -24t-23.5 -57zM512 715q13 0 23 -9.5t10 -23t-10 -23t-23 -9.5t-23 9.5t-10 23t10 23t23 9.5z
M203 618q0 20 14.5 34t34.5 14h197q2 -8 7 -16h-74q-7 0 -11.5 -4.5t-4.5 -11.5t4.5 -11.5t11.5 -4.5h260q7 0 11.5 4.5t4.5 11.5t-4.5 11.5t-11.5 4.5h-74q5 8 7 16h197q20 0 34.5 -14t14.5 -34v-683q0 -20 -14.5 -34.5t-34.5 -14.5h-520q-20 0 -34.5 14.5t-14.5 34.5v683z
M382 569h260q7 0 11.5 4.5t4.5 11.5t-4.5 11.5t-11.5 4.5h-260q-7 0 -11.5 -4.5t-4.5 -11.5t4.5 -11.5t11.5 -4.5zM382 438.5q0 -6.5 4.5 -11.5t11.5 -5l352 1q7 0 12 4.5t5 11.5t-5 11.5t-12 4.5h-352q-7 0 -11.5 -5t-4.5 -11.5zM297 406h7q12 0 20.5 8.5t8.5 21.5v6
q0 12 -8.5 20.5t-20.5 8.5h-7q-12 0 -20.5 -8.5t-8.5 -20.5v-6q0 -13 8.5 -21.5t20.5 -8.5zM297 276h7q12 0 20.5 8.5t8.5 20.5v7q0 12 -8.5 20.5t-20.5 8.5h-7q-12 0 -20.5 -8.5t-8.5 -20.5v-7q0 -12 8.5 -20.5t20.5 -8.5zM297 146h7q12 0 20.5 8.5t8.5 20.5v7
q0 12 -8.5 20.5t-20.5 8.5h-7q-12 0 -20.5 -8.5t-8.5 -20.5v-7q0 -12 8.5 -20.5t20.5 -8.5zM297 16h7q12 0 20.5 8.5t8.5 20.5v7q0 12 -8.5 20.5t-20.5 8.5h-7q-12 0 -20.5 -8.5t-8.5 -20.5v-7q0 -12 8.5 -20.5t20.5 -8.5zM750 325h-352q-7 0 -11.5 -5t-4.5 -11.5t4.5 -11.5
t11.5 -5h352q7 0 12 5t5 11.5t-5 11.5t-12 5zM750 195h-352q-7 0 -11.5 -5t-4.5 -11.5t4.5 -11.5t11.5 -5h352q7 0 12 5t5 11.5t-5 11.5t-12 5zM750 65h-352q-7 0 -11.5 -5t-4.5 -11.5t4.5 -11.5t11.5 -5h352q7 0 12 5t5 11.5t-5 11.5t-12 5z" />
    <glyph glyph-name="jilu" unicode="&#xe644;" 
d="M915 812h-740q-40 0 -68 -28t-28 -68v-111q-27 0 -46.5 -19.5t-19.5 -47t19.5 -47t46.5 -19.5v-105q-27 -1 -46.5 -20.5t-19.5 -47t19.5 -47t46.5 -19.5v-105q-27 0 -46.5 -19.5t-19.5 -47t19.5 -47.5t46.5 -20v-110q0 -39 28 -67.5t68 -28.5h740q40 0 68 28.5t28 67.5
v832q0 40 -28 68t-68 28zM79 26q-14 0 -24 10.5t-10 24.5t10 24.5t24 10.5v-70zM79 265q-14 0 -24 10t-10 24.5t10 24.5t24 11v-70zM79 504q-14 0 -24 10t-10 24.5t10 24.5t24 10v-69zM979 -116q0 -26 -18.5 -45t-45.5 -19h-740q-26 0 -45 19t-19 45v832q0 27 19 45.5
t45 18.5h740q27 0 45.5 -18.5t18.5 -45.5v-832v0zM290 540h510v32h-510v-32zM290 28h510v32h-510v-32zM290 284h510v32h-510v-32z" />
    <glyph glyph-name="renwu" unicode="&#xe641;" 
d="M290 491h245v-32h-245v32zM290 343h245v-32h-245v32zM290 196h444v-32h-444v32zM290 48h444v-32h-444v32zM909 530v2q-2 5 -4 7l-268 268q-3 3 -7 4q-1 1 -2 1h-1.5h-0.5h-395q-48 0 -82 -34t-34 -82v-792q0 -48 34 -82t82 -34h562q48 0 82 34t34 82v624v1v1zM855 544
h-129q-35 0 -59.5 24.5t-24.5 59.5v129zM793 -180h-562q-35 0 -59.5 24.5t-24.5 59.5v792q0 35 24.5 59.5t59.5 24.5h379v-152q0 -48 34 -82t82 -34h151v-608q0 -35 -24.5 -59.5t-59.5 -24.5z" />
    <glyph glyph-name="daiban" unicode="&#xe61f;" horiz-adv-x="1450" 
d="M522 88h252q8 20 19 39h-271v-39zM873 361h-351v-39h351v39zM405 -166q-16 0 -27.5 11.5t-11.5 27.5v761q0 16 11.5 27.5t27.5 11.5h605q16 0 27.5 -11.5t11.5 -27.5v-372q21 -1 39 -5v377q0 33 -23 55.5t-55 22.5h-605q-32 0 -55 -22.5t-23 -55.5v-761q0 -32 23 -55
t55 -23h433q-18 18 -33 39h-400v0zM873 214v30h-351v-39h339q7 5 12 9v0zM1029 185q-81 0 -138 -57t-57 -138t57 -138t138 -57t138.5 57t57.5 138t-57.5 138t-138.5 57zM1029 -166q-64 0 -110 45.5t-46 110.5t46 110.5t110.5 45.5t110.5 -45.5t46 -110.5t-46 -110.5
t-111 -45.5zM873 478h-351v-39h351v39zM1049 88h-39v-118h117v39h-78v79v0z" />
    <glyph glyph-name="gongqiuduihua" unicode="&#xe6a5;" 
d="M422 663h-296v-205h236l60 -60v265zM363 516h-118v29h118v-29zM363 575h-178v29h178v-29zM747 98q-51 -28 -109 -28t-109 28q-117 -32 -151 -161h520q-34 129 -151 161zM638 132q81 0 138 57t57 137.5t-57 137.5t-138 57t-138 -57t-57 -137.5t57 -137.5t138 -57zM768 261
q-18 -36 -53 -58.5t-77 -22.5t-77 22.5t-53 58.5h260z" />
    <glyph glyph-name="shuaxin" unicode="&#xe657;" 
d="M957 171q0 1 -1 3t-3 4q-4 5 -9 8v1.5t1 1.5h-293q-12 0 -20 -8t-8 -20t8 -20t20 -8h213q-48 -101 -143 -162.5t-210 -61.5q-147 0 -257 96.5t-130 239.5h-57q14 -109 76 -198.5t159 -141.5t209 -52q124 0 228.5 63t162.5 168v-203q0 -11 8.5 -19.5t20 -8.5t19.5 8.5
t8 19.5v280q0 4 -2 10zM80 416q0 -1 -0.5 -2l-0.5 -1h293q12 0 20 8t8 19.5t-8 20t-20 8.5h-214q48 101 143.5 162t210.5 61q147 0 256.5 -96t130.5 -239h56q-13 109 -75 198.5t-159 141t-209 51.5q-124 0 -228.5 -63t-163.5 -168v203q0 12 -8 20t-19.5 8t-20 -8t-8.5 -20
v-279q0 -5 2 -10q1 -1 2 -3t3 -4q4 -5 9 -8z" />
    <glyph glyph-name="list" unicode="&#xe668;" 
d="M839 -146h-654q-49 0 -84 35t-35 84v654q0 49 35 84t84 35h654q49 0 84 -35t35 -84v-654q0 -49 -35 -84t-84 -35v0zM898 627q0 25 -17 42t-42 17h-654q-25 0 -42 -17t-17 -42v-654q0 -25 17 -42t42 -17h654q25 0 42 17t17 42v654v0zM809 92h-475q-13 0 -21.5 8.5t-8.5 21
t8.5 21t21.5 8.5h475q13 0 21.5 -8.5t8.5 -21t-8.5 -21t-21.5 -8.5v0zM809 270h-475q-13 0 -21.5 9t-8.5 21t8.5 21t21.5 9h475q13 0 21.5 -9t8.5 -21t-8.5 -21t-21.5 -9v0zM809 449h-475q-13 0 -21.5 8.5t-8.5 21t8.5 21t21.5 8.5h475q13 0 21.5 -8.5t8.5 -21t-8.5 -21
t-21.5 -8.5v0zM215 92q-13 0 -21.5 8.5t-8.5 21t8.5 21t21 8.5t21 -8.5t8.5 -21t-8.5 -21t-20.5 -8.5v0zM215 270q-13 0 -21.5 9t-8.5 21t8.5 21t21 9t21 -9t8.5 -21t-8.5 -21t-20.5 -9v0zM215 449q-13 0 -21.5 8.5t-8.5 21t8.5 21t21 8.5t21 -8.5t8.5 -21t-8.5 -21
t-20.5 -8.5v0zM215 449z" />
    <glyph glyph-name="del1" unicode="&#xe661;" 
d="M920 -42l-317 317l317 317l-90 90l-317 -317l-317 317l-90 -90l317 -317l-317 -317l90 -90l317 317l317 -317z" />
    <glyph glyph-name="yonghu" unicode="&#xe60d;" 
d="M703 -99q-5 0 -10 3q-37 24 -97 26h-22l-35 -1v0h-446q-8 0 -13.5 5.5t-5.5 13.5v23q-2 38 21 78q21 35 59 60q46 30 114 42h1q35 5 71 14q28 8 45 16t19.5 11t3.5 4q0 2 1 4q2 11 0 40q-3 32 -16 61.5t-24 44t-31 37.5q-18 20 -25 30q-29 42 -31 90v1q0 19 17 35l1 1v0
q0 2 -1 7v3q-13 69 -1 138q1 22 13.5 45.5t20.5 32t14 13.5v0q12 11 17 18q0 1 1 2q-1 1 -1 2q-6 15 -4 25q3 18 24 24q7 2 20 2h2q44 3 70 1q49 -4 91.5 -14t67 -20t44.5 -22t25.5 -17t8.5 -9h1q21 -26 31 -62q3 -12 4 -20q7 -40 3 -97q-1 -20 -4 -45q-1 -5 0 -6l3 -3
q9 -9 12 -18q2 -7 2 -16v-1q-3 -48 -32 -90q-6 -10 -24 -30q-20 -23 -31 -37.5t-24 -44t-16 -61.5q-3 -29 -1 -40l2 -4q0 -1 3 -4t20 -11t44 -16q36 -9 71 -14h1q70 -13 116 -43q38 -25 58 -60q23 -39 20 -78v-22q0 -8 -5 -13.5t-13 -5.5h-177q-8 0 -13.5 5.5t-5.5 13.5
t5.5 13.5t13.5 5.5h158v4v2q2 28 -16 58q-17 27 -47 47q-39 25 -100 36q-38 5 -75 15q-82 22 -93 55q-7 13 -3 60q3 37 18 71.5t27.5 51t34.5 41.5q16 18 22 26q21 32 24 71v3t-4 5l-4 4q-11 14 -8 36q3 23 4 41q3 53 -3 89v1q-1 6 -4 15q-7 29 -23 47q-14 15 -45 30
q-67 32 -167 39q-24 2 -65 0h-2q-4 0 -7 -1q6 -13 2 -25q-2 -6 -6 -12q-7 -12 -24 -26q-34 -31 -35 -66v-2q-11 -63 1 -126v-3q5 -27 -11 -42v0l-6 -6v0v0v-1q3 -39 25 -71q5 -8 22 -26q21 -25 33.5 -41.5t28 -51t18.5 -71.5q4 -47 -3 -60q-12 -33 -93 -55q-38 -10 -75 -15
q-61 -10 -100 -35q-30 -20 -47 -47q-18 -31 -17 -59v-2v-4h427h36v0h22h1q71 -2 117 -32q6 -4 7.5 -11.5t-2.5 -14.5q-5 -8 -16 -8zM631 206q1 0 2 -1q-1 1 -2 1zM414 206q-1 0 -1 -1q0 1 1 1z" />
    <glyph glyph-name="iconfont05" unicode="&#xe6c2;" 
d="M727 551h-378q-9 0 -15.5 6.5t-6.5 15.5v0q0 9 6.5 15t15.5 6h378q9 0 15.5 -6t6.5 -15v0q0 -9 -6.5 -15.5t-15.5 -6.5zM727 434h-378q-9 0 -15.5 6t-6.5 15v0q0 9 6.5 15.5t15.5 6.5h378q9 0 15.5 -6.5t6.5 -15.5v0q0 -9 -6.5 -15t-15.5 -6zM609 332h-260q-9 0 -15.5 6
t-6.5 15v0q0 9 6.5 15.5t15.5 6.5h260q9 0 15.5 -6.5t6.5 -15.5v0q0 -9 -6.5 -15t-15.5 -6zM866 647q0 36 -26 62t-62 26h-565v-421q-46 -79 -65 -108q-38 -60 -44 -95q-8 -41 8 -101q28 -103 29 -118q2 -33 1 -57l41 -4q2 38 0 63q-2 13 -19 79.5t-20 81.5q-7 49 8 78
q9 19 61 99v-157l119 116l54 53q2 1 4.5 2.5t9.5 3.5t12 -2q13 -9 8 -26q-4 -14 -19 -34q-18 -23 -36 -51q-18 -27 -22 -49q-3 -22 3 -53l21 -84h81q-11 -20 -16 -47q-3 -15 -4.5 -30.5t-1.5 -23.5v-8h39q2 39 6 57q8 36 26 52h369v696v0zM823 -5h-420l-15 57q0 2 -0.5 5
t-1 11t1.5 13q5 17 21 43q11 16 35 46q21 28 21 61q0 13 -4.5 23.5t-7.5 14.5t-11 13q-15 17 -43 15q-24 -2 -43 -19q-8 -8 -100 -97v512h516q21 0 35.5 -15t14.5 -35v-648h1z" />
    <glyph glyph-name="tuichu" unicode="&#xe60e;" 
d="M512 -212q-94 0 -179.5 36.5t-147.5 98.5t-98.5 147.5t-36.5 179.5q0 129 67 239t182 170q10 6 21.5 2.5t17 -14t2 -22t-14.5 -16.5q-100 -53 -158.5 -149.5t-58.5 -209.5q0 -110 54 -203t147 -147.5t203 -54.5t203 54.5t147 147.5t54 203q0 116 -60.5 213.5
t-164.5 149.5q-11 5 -15 16t1.5 22t16.5 14.5t22 -1.5q119 -59 188.5 -170t69.5 -244q0 -94 -36.5 -179.5t-98.5 -147.5t-147.5 -98.5t-179.5 -36.5zM512 263q-12 0 -20.5 8.5t-8.5 20.5v491q0 12 8.5 20.5t20.5 8.5t20.5 -8.5t8.5 -20.5v-491q0 -12 -8.5 -20.5t-20.5 -8.5z
" />
    <glyph glyph-name="553zuzhijiagou" unicode="&#xe6e9;" 
d="M857 55q-23 0 -45 -10l-284 284v218q36 6 61 34.5t25 66.5q0 41 -30 71t-71.5 30t-71.5 -30t-30 -71q0 -38 24.5 -66.5t61.5 -34.5v-218l-285 -285q-22 11 -46 11q-42 0 -71.5 -30t-29.5 -72t29.5 -71.5t71.5 -29.5t71.5 29.5t29.5 71.5q0 43 -30 72l260 260v-232
q-37 -5 -61.5 -33.5t-24.5 -66.5q0 -42 30 -71.5t71.5 -29.5t71.5 29.5t30 71.5q0 38 -25 66.5t-61 33.5v233l259 -259q-31 -30 -31 -73q0 -42 30 -72t71.5 -30t71.5 30t30 72t-30 71.5t-72 29.5zM166 -117q-29 0 -50 20.5t-21 49.5t21 50t50 21t50 -21t21 -50t-21 -49.5
t-50 -20.5zM442 647.5q0 29.5 20.5 50t50 20.5t50 -20.5t20.5 -50t-20.5 -50t-50 -20.5t-50 20.5t-20.5 50zM583 -47q0 -29 -20.5 -49.5t-50 -20.5t-50 20.5t-20.5 49.5t20.5 50t50 21t50 -21t20.5 -50zM857.5 -117q-29.5 0 -50 21t-20.5 50t20.5 49.5t50 20.5t50 -20.5
t20.5 -49.5t-20.5 -50t-50 -21z" />
    <glyph glyph-name="fanhui1" unicode="&#xe631;" 
d="M623 527h-175v142l-384 -192l384 -192v142h189q225 0 225 -188q0 -195 -232 -195h-442v-100h446q317 0 317 285q0 298 -328 298z" />
    <glyph glyph-name="xiangyou" unicode="&#xe642;" 
d="M710 300l-473 474l38 38l512 -512l-512 -512l-38 38z" />
    <glyph glyph-name="renyuanguanli2" unicode="&#xe6d1;" 
d="M630 325q34 27 53.5 66.5t19.5 84.5q0 79 -56 135t-135 56t-135 -56t-56 -135q0 -45 19.5 -84.5t53.5 -66.5q-90 -35 -145.5 -116t-55.5 -180v-94h638v94q0 99 -55.5 180t-145.5 116v0zM512 604q53 0 90.5 -37.5t37.5 -90.5t-37.5 -90.5t-90.5 -37.5t-90.5 37.5
t-37.5 90.5t37.5 90.5t90.5 37.5v0zM767 -3h-510v32q0 106 74.5 180.5t180.5 74.5t180.5 -74.5t74.5 -180.5v-32v0zM298 314l2 6q0 3 1 4q0 3 -1 7v2.5v2t-0.5 1l-0.5 0.5q0 1 -2 4q-2 5 -4 8h-1v1q-5 4 -10 7q-26 11 -41.5 35t-15.5 52q0 33 20.5 59t52.5 34q13 3 20 14.5
t3.5 24t-14.5 19.5t-24 4q-54 -13 -88 -56.5t-34 -98.5q0 -61 41 -107q-62 -33 -99.5 -93.5t-37.5 -133.5v-49q0 -13 9.5 -22.5t22.5 -9.5t22.5 9.5t9.5 22.5v49q0 67 40.5 118.5t104.5 67.5q17 2 24 18v0zM821 337q42 46 42 107q0 54 -33 97t-85 57q-13 3 -24.5 -3.5
t-15 -19t3 -24t19.5 -15.5q31 -8 51 -34t20 -58q0 -28 -15.5 -52t-41.5 -35q-6 -3 -10 -8h-0.5h-0.5q-2 -3 -5 -8q-1 -3 -1 -4l-0.5 -0.5t-0.5 -1v-2v-2.5q-1 -4 -1 -7q0 -1 1 -4l1 -6q7 -16 25 -18q64 -16 104.5 -67.5t40.5 -118.5v-49q0 -13 9 -22.5t22.5 -9.5t23 9.5
t9.5 22.5v49q0 73 -37.5 133.5t-100.5 93.5v0zM821 337z" />
    <glyph glyph-name="xiao21" unicode="&#xe635;" 
d="M509 497zM461 497q0 20 14 34t34 14t34 -14t14 -34t-14 -34t-34 -14t-34 14t-14 34zM509 241q20 0 34 14t14 34t-14 34t-34 14t-34 -14t-14 -34t14 -34t34 -14zM509 81zM461 81q0 20 14 34t34 14t34 -14t14 -34t-14 -34t-34 -14t-34 14t-14 34zM509 -163q94 0 179.5 36.5
t147 98.5t98.5 147.5t37 179.5t-37 179.5t-98.5 147.5t-147 98.5t-179.5 36.5t-179.5 -36.5t-147.5 -98.5t-98.5 -147.5t-36.5 -179.5t36.5 -179.5t98.5 -147.5t147.5 -98.5t179.5 -36.5zM509 722q115 0 212.5 -56.5t154 -154t56.5 -212.5t-56.5 -212.5t-154 -154.5
t-212.5 -57t-212.5 57t-154.5 154.5t-57 212.5t57 212.5t154.5 154t212.5 56.5z" />
    <glyph glyph-name="1" unicode="&#xe627;" 
d="M512 808q-103 0 -197 -40.5t-162 -108.5t-108.5 -162t-40.5 -197t40.5 -197t108.5 -162t162 -108.5t197 -40.5t197 40.5t162 108.5t108.5 162t40.5 197t-40.5 197t-108.5 162t-162 108.5t-197 40.5zM547 55h-58v402q-38 -38 -96 -73v56q72 49 119 116h35v-501z" />
    <glyph glyph-name="3" unicode="&#xe628;" 
d="M512 808q-103 0 -197 -40.5t-162 -108.5t-108.5 -162t-40.5 -197t40.5 -197t108.5 -162t162 -108.5t197 -40.5t197 40.5t162 108.5t108.5 162t40.5 197t-40.5 197t-108.5 162t-162 108.5t-197 40.5zM653 173.5q-7 -56.5 -50.5 -91.5t-99 -33.5t-96.5 35t-52 97.5l52 8
q12 -38 38 -62.5t65.5 -23t62.5 32t20.5 70t-30.5 61t-89 30.5v38q61 6 89 32t25 68.5t-38 61t-74.5 4t-62.5 -81.5l-52 9q17 52 47.5 87t83 41t92 -13t55.5 -58.5t4 -86t-67 -81.5q41 -17 62.5 -52t14.5 -91.5z" />
    <glyph glyph-name="mdliucheng" unicode="&#xe65b;" 
d="M902 780h-780q-37 0 -63.5 -26.5t-26.5 -63.5v-780q0 -37 26.5 -63.5t63.5 -26.5h780q37 0 63.5 26.5t26.5 63.5v780q0 37 -26.5 63.5t-63.5 26.5zM122 716h781q11 0 18 -7.5t7 -18.5v-126h-832v126q0 11 7.5 18.5t18.5 7.5zM902 -116h-780q-11 0 -18.5 7.5t-7.5 18.5
v622h832v-622q0 -11 -7.5 -18.5t-18.5 -7.5zM816 676h72v-72h-72v72zM672 676h72v-72h-72v72zM520 676h72v-72h-72v72zM608 252h-376q-7 0 -11.5 4.5t-4.5 11.5v144q0 7 4.5 11.5t11.5 4.5h376q7 0 11.5 -4.5t4.5 -11.5v-144q0 -7 -4.5 -11.5t-11.5 -4.5zM248 284h344v112
h-344v-112zM856 -4h-216q-7 0 -11.5 4.5t-4.5 11.5v144q0 7 4.5 11.5t11.5 4.5h216q7 0 11.5 -4.5t4.5 -11.5v-144q0 -7 -4.5 -11.5t-11.5 -4.5zM656 28h184v112h-184v-112zM448 -4h-216q-7 0 -11.5 4.5t-4.5 11.5v144q0 7 4.5 11.5t11.5 4.5h216q7 0 11.5 -4.5t4.5 -11.5
v-144q0 -7 -4.5 -11.5t-11.5 -4.5zM248 28h184v112h-184v-112zM784 204q-7 0 -11.5 4.5t-4.5 11.5v104h-96q-7 0 -11.5 4.5t-4.5 11.5t4.5 11.5t11.5 4.5h112q7 0 11.5 -4.5t4.5 -11.5v-120q0 -7 -4.5 -11.5t-11.5 -4.5zM448 100h192v-32h-192v32z" />
    <glyph glyph-name="iconfontdaochuexcel" unicode="&#xe685;" horiz-adv-x="1051" 
d="M989 247l-210 250v-114h-628v-290h628v-114zM289 273h-70v-23h66v-24h-66v-24h70v-25h-94v122h94v-26zM391 176l-30 46l-28 -45h-30l38 61l-39 61h30l29 -46l30 46h30l-40 -62l40 -61h-30zM539 200q0 -5 -2.5 -9t-6 -6.5t-9.5 -4.5t-11 -2h-46q-4 0 -9 1.5t-9 3t-6.5 4
t-5.5 9t-3 14.5v59q0 4 1 8t3 8t6 7.5t10 5.5t10 2h49q5 0 9 -1.5t8 -3.5t7 -6.5t4 -14.5l1 -17h-25q-1 4 -1.5 7t-2.5 6t-8 3h-30q-5 0 -8.5 -1t-4.5 -2t-2.5 -5t-1.5 -10v-29q0 -9 1.5 -12.5t3 -5t4.5 -2t8 -0.5h28q10 0 12 3t2 5v10h26l-1 -24v0v0zM659 273h-70v-23h66
v-24h-66v-24h70v-25h-94v122h94v-26zM776 177h-85v121h24v-93h61v-28zM776 177zM702 -43q-15 -5 -31 -5h-450q-44 0 -74.5 29.5t-30.5 72.5v472q0 43 31 74t74 31h450v0h5h1q2 0 4 -1h2h3q1 0 2 -1h2t4 -1h1q2 0 3 -1h0.5h0.5l6 -2v0q35 -12 55 -44v0q15 -23 16 -51h49v3
q0 25 -8 48h1q-15 43 -52 70.5t-83 28.5h-3h-0.5h-0.5h-465q-61 0 -104 -43t-43 -104v-483q0 -61 43 -104t104 -43h464q69 0 113 54h-89v0z" />
    <glyph glyph-name="jinlingyingcaiwangtubiao98" unicode="&#xe6f6;" 
d="M971 292l-214 266q-6 7 -15 7h-27v-38h18l204 -254v-366q0 -12 -10 -20.5t-25 -8.5h-780q-15 0 -25 8.5t-10 20.5v363l211 257h18v38h-27q-9 0 -15 -7l-221 -269q-5 -5 -5 -12v-370q0 -28 21.5 -48t52.5 -20h780q30 0 51.5 20t21.5 48v373q1 7 -4 12zM390 189
q-29 0 -49.5 -20.5t-20.5 -49.5v-131q0 -29 20.5 -49.5t49.5 -20.5h264q29 0 50 20.5t21 49.5v131q0 29 -21 49.5t-50 20.5h-264zM654 151q10 0 19 -7l-151 -92l-150 92q9 7 18 7h264zM654 -44h-264q-13 0 -22.5 9.5t-9.5 22.5v119l164 -100l164 100v-119q0 -13 -9.5 -22.5
t-22.5 -9.5v0zM404 538l94 119v-367q0 -8 5.5 -14t13.5 -6t13.5 6t5.5 14v367l94 -119q6 -7 16 -7q6 0 11 4q7 5 8 13t-4 14l-129 163q-6 7 -15 7t-15 -7l-128 -163q-5 -6 -4.5 -14t7 -13t14.5 -4t13 7zM168.5 240.5q5.5 -10.5 17.5 -10.5h189q8 0 13.5 5.5t5.5 13.5
t-5.5 13.5t-13.5 5.5h-151l125 165h67q8 0 13.5 5.5t5.5 13.5t-5.5 14t-13.5 6h-77q-9 0 -15 -8l-153 -204q-8 -9 -2.5 -19.5zM599 452q0 -8 5.5 -13.5t13.5 -5.5h72l124 -165h-151q-7 0 -13 -5.5t-6 -13.5t6 -13.5t13 -5.5h190q12 0 17 10.5t-2 19.5l-153 204q-6 8 -16 8
h-81q-8 0 -13.5 -6t-5.5 -14z" />
    <glyph glyph-name="45354354" unicode="&#xe643;" 
d="M361 237h-274q-36 0 -61.5 -25t-25.5 -61v-275q0 -36 25.5 -61.5t61.5 -25.5h274q36 0 61.5 25.5t25.5 61.5v275q0 36 -25.5 61t-61.5 25zM383 -104q0 -18 -13 -30.5t-31 -12.5h-230q-18 0 -31 12.5t-13 30.5v232q0 18 13 30.5t31 12.5h230q18 0 31 -12.5t13 -30.5v-232z
M936 237h-272q-36 0 -61 -25t-25 -61v-275q0 -36 25 -61.5t61 -25.5h272q36 0 61.5 25.5t25.5 61.5v275q0 36 -25.5 61t-61.5 25zM936 812h-272q-36 0 -61 -25.5t-25 -61.5v-274q0 -36 25 -61.5t61 -25.5h272q36 0 61.5 25.5t25.5 61.5v274q0 36 -25.5 61.5t-61.5 25.5z
M957 471q0 -18 -12.5 -31t-30.5 -13h-231q-18 0 -30.5 13t-12.5 31v233q0 17 12.5 30t30.5 13h231q18 0 30.5 -13t12.5 -30v-233zM361 812h-274q-36 0 -61.5 -25.5t-25.5 -61.5v-274q0 -36 25.5 -61.5t61.5 -25.5h274q36 0 61.5 25.5t25.5 61.5v274q0 36 -25.5 61.5
t-61.5 25.5zM383 471q0 -18 -13 -31t-31 -13h-230q-18 0 -31 13t-13 31v233q0 17 13 30t31 13h230q18 0 31 -13t13 -30v-233z" />
    <glyph glyph-name="720caogaoxiang" unicode="&#xe6f7;" 
d="M675 302l2 -19v-3v-3q0 -52 -55 -105.5t-128.5 -53.5t-129 53.5t-55.5 105.5q0 1 1 3v3l2 19h-247v-441h890v441h-280zM919 -103h-818v369h173q6 -63 64 -119q69 -65 155.5 -65t155.5 65q58 56 64 119h206v-369zM211 704h396v-194h214v-175h35v211h-1l1 1l-213 192v1v0
h-1v0h-467v-405h36v369zM803 546h-160v145z" />
    <glyph glyph-name="iconyichu01" unicode="&#xe662;" 
d="M511 749q-91 0 -174 -35.5t-143.5 -95.5t-96 -143t-35.5 -174t35.5 -174t96 -143t143.5 -96t174 -36t174 36t143 96t95.5 143t35.5 174t-35.5 174t-95.5 143t-143 95.5t-174 35.5zM777 250h-538v102h538v-102z" />
    <glyph glyph-name="icontianjia01" unicode="&#xe663;" 
d="M511 749q-91 0 -174 -35.5t-143.5 -95.5t-96 -143t-35.5 -174t35.5 -174t96 -143t143.5 -96t174 -36t174 36t143 96t95.5 143t35.5 174t-35.5 174t-95.5 143t-143 95.5t-174 35.5zM780 250h-220v-219h-102v219h-219v102h219v219h102v-219h220v-102z" />
    <glyph glyph-name="guanbi" unicode="&#xe63b;" 
d="M512 812q-139 0 -257 -68.5t-186.5 -186.5t-68.5 -257t68.5 -257t186.5 -186.5t257 -68.5t257 68.5t186.5 186.5t68.5 257t-68.5 257t-186.5 186.5t-257 68.5zM731 121l-40 -40l-179 179l-179 -179l-40 40l179 179l-179 179l40 40l179 -179l179 179l40 -40l-179 -179z
" />
    <glyph glyph-name="jixiao" unicode="&#xe646;" 
d="M893 756h-751q-35 0 -60 -25.5t-25 -60.5v-751q0 -35 25 -60t60 -25h751q35 0 60 25t25 60v751q0 36 -25 61t-60 25zM944 -81q0 -21 -15 -36t-36 -15h-751q-21 0 -36 15t-15 36v751q0 21 15 36t36 15h751q21 0 36 -15t15 -36v-751zM841 504v1t-1 1q0 1 -1 3q-2 2 -2 3h-1
q0 1 -0.5 1h-1.5q-2 2 -3 2.5t-3 0.5q-1 0 -2 0.5l-1 0.5h-184q-7 0 -12 -5t-5 -12.5t5 -12.5t12 -5h146l-240 -265l-184 170l-165 -183q-5 -5 -4.5 -12.5t5.5 -12t12 -4t12 5.5l142 158l185 -171l258 287v-160q0 -7 5 -12t12 -5t12 5t5 12v205v0zM825 107h-615q-7 0 -12 -5
t-5 -12t5 -12t12 -5h615q7 0 12 5t5 12t-5 12t-12 5z" />
    <glyph glyph-name="guanwangicon64" unicode="&#xe6a6;" 
d="M140 611q0 9 -6 15t-15 6h-54q-8 0 -14 -6t-6 -15v-47h-25q-6 0 -10 -3.5t-4 -9.5v-144q0 -6 4 -10t10 -4t9.5 4t3.5 10v130h11v-398q0 -5 12 -22.5t24 -32.5l12 -15q47 58 47 70v472h1zM111 144q-6 -10 -19 -28q-11 13 -20 28v1h38v-1h1zM111 171h-38v366h38v-366z
M111 564h-38v39h38v-39zM374 574l146 -67q4 -2 9 -2t9 2l142 67q7 4 0 8l-146 67q-4 2 -9 2t-9 -2l-142 -67q-9 -3 0 -8zM525 623l96 -45l-92 -44l-96 44zM506 319q3 -2 4 -2q5 0 5 5v144q0 9 -9 13l-135 64q-1 1 -3 1q-4 0 -4 -6v-137q0 -8 8 -13zM487 457l-1 -96l-94 49
v92zM545 479q-9 -5 -9 -14v-143q0 -5 5 -5q1 0 4 1l134 70q8 5 8 13l1 137q0 6 -4 6q-2 0 -4 -1zM660 410l-95 -49l-1 96l96 45v-92zM328 264h-4q-7 0 -12 -5t-5 -13v-4q0 -7 5 -12.5t12 -5.5h4q8 0 13 5.5t5 12.5v4q0 7 -5 12.5t-13 5.5zM369 246v-3q0 -5 5.5 -9t12.5 -4
h337q8 0 13 3.5t5 9.5v3q0 5 -5 9t-13 4h-337q-7 0 -12.5 -4t-5.5 -9zM328 207h-4q-7 0 -12 -5.5t-5 -12.5v-4q0 -8 5 -13t12 -5h4q8 0 13 5t5 13v4q0 7 -5 12.5t-13 5.5zM387 202q-7 0 -12.5 -4t-5.5 -9v-3q0 -5 5.5 -9t12.5 -4h174q7 0 12.5 3.5t5.5 9.5v3q0 5 -5.5 9
t-12.5 4h-174zM328 148h-4q-7 0 -12 -5t-5 -13v-3q0 -8 5 -13t12 -5h4q8 0 13 5t5 13v3q0 8 -5 13t-13 5zM618 127v3q0 5 -5 9t-13 4h-213q-7 0 -12.5 -4t-5.5 -9v-3q0 -5 5.5 -9t12.5 -4h213q18 2 18 13zM1010 259l-70 70q-8 7 -17 7q-7 0 -12 -4l-60 -61v445
q0 16 -11.5 27.5t-27.5 11.5h-575q-16 0 -27.5 -11.5t-11.5 -27.5v-689h-74q-8 0 -13 -5.5t-5 -13.5v0q0 -28 27 -52.5t70 -24.5h308l-35 -36q-6 -5 -5 -13.5t8 -15.5l69 -70q8 -7 18 -7q7 0 11 4l137 137h28h21q36 0 62 25t26 61v50l162 163q12 15 -3 30zM227 716
q0 11 10 11h575q4 0 7 -3t3 -8v-474l-214 -214h-381v688zM203 -40q-26 0 -43.5 12t-23.5 27h443l-39 -39h-337zM822 17q0 -23 -17 -40t-41 -17h-3l-17 1l78 79v-23zM564 -178l-61 61l33 33l18 -19q5 -4 11.5 -4t10.5 4q11 11 0 22l-19 18l30 30l18 -19q5 -4 11.5 -4t10.5 4
q11 11 0 21l-18 19l42 42l18 -19q5 -4 11.5 -4t10.5 4q11 11 0 21l-18 19l34 35l19 -19q4 -4 10.5 -4t11.5 4q10 11 0 21l-19 19l31 31l18 -17q4 -5 10.5 -5t10.5 5q11 10 0 21l-17 17l38 38l16 -16q4 -5 10.5 -5t11.5 5q10 11 0 21l-16 16l35 36l18 -17q4 -5 10.5 -5
t10.5 5q11 10 0 21l-17 17l28 28l62 -61z" />
    <glyph glyph-name="chenggong" unicode="&#xe69f;" 
d="M512 812q-139 0 -257 -68.5t-186.5 -186.5t-68.5 -257t68.5 -257t186.5 -186.5t257 -68.5t257 68.5t186.5 186.5t68.5 257t-68.5 257t-186.5 186.5t-257 68.5zM512 -172q-96 0 -183.5 37t-151 100.5t-100.5 151t-37 183.5t37 183.5t100.5 151t151 100.5t183.5 37
t183.5 -37t151 -100.5t100.5 -151t37 -183.5t-37 -183.5t-100.5 -151t-151 -100.5t-183.5 -37zM542 399q-32 -33 -65 -73t-50 -64l-16 -24l-132 102l-29 -44l161 -234q65 126 146 234q42 56 93 114.5t81 89.5l31 31h-59q-88 -59 -161 -132z" />
    <glyph glyph-name="shaixuan" unicode="&#xe664;" 
d="M12 799v-129l382 -430v-353l236 -88v412l382 459v129h-1000zM953 700l-382 -460v-353l-118 29v353l-382 431v40h882v-40z" />
    <glyph glyph-name="iconfonticon" unicode="&#xe6c6;" 
d="M512 750q-90 0 -171.5 -35t-140.5 -94t-94 -140.5t-35 -171t35 -171.5t94 -141t140.5 -94t171.5 -35t171.5 35t140.5 94t94 141t35 171.5t-35 171t-94 140.5t-140.5 94t-171.5 35zM512 -106q-113 0 -208.5 55.5t-151 151.5t-55.5 208.5t55.5 208t151 151t208.5 55.5
t208.5 -55.5t151 -151t55.5 -208t-55.5 -208.5t-151 -151.5t-208.5 -55.5zM776 217l26 -60l-148 -17l-34 -103l-41 -27l-50 120l-96 19l-21 41l-22 7l-31 -139l-36 -48l-31 163l-70 -19l77 163l-82 94l79 48l48 134l41 -149l41 -12l86 27l-67 127l144 -46l-29 -93l53 9
l60 137l103 -67l-89 -74l75 -8l16 -45l-122 -29l-21 -38h100l29 -51l-108 -24l-17 -36zM431 202l122 27l-14 35l-91 10l-17 41l117 29l-19 28l-84 5l-21 22l-51 -55l65 -113z" />
    <glyph glyph-name="shangwuhezuo" unicode="&#xe6ab;" 
d="M359 -54q1 -1 8 -1l1 1.5t4 -1.5q18 -13 36 -12q25 3 -14 27h-37v-1v-1v-4.5t2 -7.5zM291 -57h8l1 1.5t4 -1.5q18 -14 36 -12q25 3 -13 27h-38l1 -1zM619 -49l-18 -14q-12 -13 5 -14t36 12q2 3 3.5 1.5l1.5 -1.5q7 0 8 1l1 13l1 2h-38zM696 -52l-18 -14q-12 -12 4 -13
q18 -1 36 12q3 3 4 1.5l1 -1.5q8 0 9 1l1 13v1h-37zM466 226q35 0 45 12l17 2l-13 34q-1 2 -4 2q1 2 -5 1q-4 0 -15 -0.5t-16.5 -2t-5.5 -4.5zM495 260q-7 2 -3 5h3q3 1 4 0q3 -3 -4 -5zM395 -32l15 206q8 11 11 21v2l0.5 4.5l1.5 13.5t2 19q19 -6 29 -10q2 9 3.5 27t1.5 23
q-4 2 -31 12l1 2l-169 53l25 -6l144 -38l2 35l2.5 -15l2.5 -15l1 -6q2 3 -1 50t-16 93.5t-37 41.5q1 0 -6 -3l2 -138l-16 114l3 9l-6 10h-13l-6 -10l3 -7l2 -79l5 -44l-46 147q-2 0 -14 0.5t-13 0.5q-31 -7 -49.5 -34.5t-21.5 -59.5t-1 -57.5t6 -35.5q-1 -4 15 -9
q6 -81 8 -88v-2l2.5 -14.5t7 -26t12.5 -13.5l22 -173l50 2l-6 161h4h2.5h2.5l21 -163h42v0zM229 273l-1 10l52 -14zM272 653q-7 -3 -13.5 -25.5t4.5 -37.5q-5 -2 -5 -23q0 -24 6 -24q2 0 4 6q7 -28 27.5 -48.5t36.5 -20.5q20 0 39.5 20.5t22.5 51.5l5 32q1 8 -1 8l-1 -1
q0 11 -1 20q-2 -2 -4 -2.5t-4.5 -0.5h-5t-6 1.5t-6 2t-6.5 2.5t-6.5 3.5t-7.5 3.5t-8 3q5 -1 8 -3q19 -8 30.5 -4t16.5 13l5 9q-2 2 -6.5 5t-18 10.5t-28 10.5t-35.5 1t-42 -13zM265 590v7v-7v0zM265 597v3.5t1 3.5v-2q-1 -2 -1 -5zM272 632q2 4 4 4zM797 135v-4q2 -1 6 6
q3 4 3 6q0 3 1 4q2 2 3 -1q1 -2 0 -5q0 -6 2.5 -9.5t9.5 -3t11.5 10.5t6.5 20l2 9l-39 -2q-3 0 -4 -5t-1.5 -14t-0.5 -12zM802 176v0v0zM801 447q-16 15 -66 24q-3 1 -27 -1l-45 -147l4 44l2 79l3 7l-6 10h-13l-5 -10l2 -9l-16 -114l3 138l-7 3q-22 4 -40 -41.5t-24 -99.5
q-2 -16 -2 -30l-43 -18l17 -42l35 22v2v0h1q1 1 8 59l4 -72q2 -16 3.5 -32t2 -24l0.5 -8v-1q4 -11 11 -22l16 -206h41l12 165q5 0 15 -2l-3 1l4 -165l47 1l18 191q6 1 9.5 11t4.5 19v10q0 51 9 168l2 11q0 1 1.5 -3t12 -92t10.5 -97q1 0 8 -1l14 -2t11 -1q1 0 1.5 0.5t0 2
t-1.5 3t-1.5 4.5t0.5 7q3 41 -5.5 141t-27.5 117zM741 644q-37 16 -66 12.5t-46 -15.5l-18 -12l2 -4t5.5 -7.5t10 -8.5t15 -3t19.5 5l8 4q-2 -2 -7 -4t-7.5 -3.5t-7 -3.5t-7 -2.5t-6 -2t-5.5 -1.5h-5t-5 1l-4 2q-1 -9 0 -20q-1 1 -2 1q-5 0 3 -36l1 -4q4 -31 23.5 -51.5
t38.5 -20.5q16 0 36.5 20.5t28.5 48.5q1 -5 4 -5q5 0 5 23q0 21 -5 24q11 15 5 37t-14 26zM737 626q3 0 5 -4q-2 2 -5 4zM749 581q0 7 -1 11v2q1 -8 1 -13v0zM871 121h-94q-5 0 -8.5 -3.5t-3.5 -8.5v-13h118v13q0 5 -3.5 8.5t-8.5 3.5zM832 79q-1 -2 -7 -2l-6 2v11h-54v-55
q0 -5 3.5 -8.5t8.5 -3.5h94q5 0 8.5 3.5t3.5 8.5v55h-51v-11v0z" />
    <glyph glyph-name="2" unicode="&#xe629;" 
d="M512 808q-103 0 -197 -40.5t-162 -108.5t-108.5 -162t-40.5 -197t40.5 -197t108.5 -162t162 -108.5t197 -40.5t197 40.5t162 108.5t108.5 162t40.5 197t-40.5 197t-108.5 162t-162 108.5t-197 40.5zM655 55h-294v12q2 44 40 79t96.5 109t76 115t13 70t-28 48t-54 16
t-58 -23.5t-42.5 -61.5l-55 9q23 67 59.5 97.5t86.5 33.5q29 3 52 -1.5t48 -20.5t41 -48t11.5 -77t-45.5 -107.5t-157 -196.5h210v-53z" />
    <glyph glyph-name="4" unicode="&#xe62a;" 
d="M559 216v230l-163 -230h163zM512 808q-103 0 -197 -40.5t-162 -108.5t-108.5 -162t-40.5 -197t40.5 -197t108.5 -162t162 -108.5t197 -40.5t197 40.5t162 108.5t108.5 162t40.5 197t-40.5 197t-108.5 162t-162 108.5t-197 40.5zM684 166h-70v-111h-55v111h-225v50
l236 340h44v-340h70v-50v0z" />
    <glyph glyph-name="5" unicode="&#xe62b;" 
d="M512 808q-103 0 -197 -40.5t-162 -108.5t-108.5 -162t-40.5 -197t40.5 -197t108.5 -162t162 -108.5t197 -40.5t197 40.5t162 108.5t108.5 162t40.5 197t-40.5 197t-108.5 162t-162 108.5t-197 40.5zM656 213q-1 -33 -13 -66t-35 -55t-56.5 -35t-77 -10t-83 32t-54.5 99
l53 14q20 -78 69.5 -87t80 10t43.5 49.5t11.5 68.5t-20 64t-48 35t-65.5 0t-60 -41l-49 6q6 17 55 250h230v-52h-186q-15 -79 -29 -125q43 20 81 18.5t73 -17.5t51 -43q16 -28 23.5 -55.5t5.5 -59.5z" />
    <glyph glyph-name="gerenshezhi" unicode="&#xe6ed;" 
d="M474 -128v0q-10 1 -18.5 8.5t-9.5 17.5l-16 89q-1 8 -7.5 15.5t-13.5 10.5v0l-26 10v1q-5 2 -13 2q-12 0 -20 -5l-74 -53q-7 -5 -17 -5q-12 0 -21 7v0l-55 55v0q-6 8 -6.5 19t4.5 19l53 74q11 16 2 33q-1 1 -5 13q-5 11 -6 13q-2 7 -9.5 13.5t-14.5 7.5l-90 15
q-10 2 -17.5 10.5t-7.5 17.5v1v77v0q1 10 8.5 18.5t16.5 9.5l90 16q7 1 14.5 7.5t10.5 13.5v0l11 25v1q8 17 -3 33l-53 74q-5 8 -4.5 19t6.5 19v0l55 55v0q8 7 21 7q10 0 17 -5l74 -53q8 -5 19 -5q8 0 14 3q2 1 13 5.5t13 5.5q7 2 13.5 9.5t7.5 14.5l16 90q1 10 9.5 17.5
t18.5 7.5v0h77h1q10 -1 18 -8t10 -17l15 -90q1 -7 7.5 -15t13.5 -10l26 -11v0q6 -2 14 -2q11 0 19 5l74 53q7 5 18 5q12 0 20 -7v0l55 -55v0q7 -8 7.5 -19t-5.5 -19l-53 -74q-11 -16 -2 -33q1 -2 5.5 -13t5.5 -13q2 -7 9.5 -13.5t15.5 -8.5l89 -15q10 -1 17.5 -9.5
t8.5 -18.5v0v-77v-1q-1 -10 -8.5 -18t-17.5 -10l-89 -15q-8 -1 -15.5 -7.5t-10.5 -13.5v0l-10 -26q-9 -17 2 -33l53 -74q6 -8 5.5 -19t-7.5 -19v0l-55 -55v0q-8 -7 -20 -7v0q-10 0 -18 5l-74 53q-7 5 -19 5q-8 0 -14 -3q-1 -1 -12.5 -5.5t-13.5 -5.5q-7 -2 -13.5 -9.5
t-7.5 -15.5l-15 -89q-2 -10 -10.5 -17.5t-17.5 -7.5h-1l-77 -1v0zM411 19q10 -3 17.5 -12t8.5 -18l15 -90q2 -7 8 -13t14 -7h77q8 1 14.5 7t7.5 13l15 90q2 9 9.5 18t16.5 12q1 0 13 5q10 4 12 5q7 4 17 4q14 0 23 -7l74 -52q6 -4 14 -4v0q9 0 15 5l55 55q12 14 1 29l-52 74
q-6 8 -7 19.5t3 20.5l11 25q3 9 12 16.5t18 9.5l90 15q7 1 13 7.5t7 14.5v77q-1 7 -7 13.5t-13 8.5l-90 15q-9 1 -18 9t-12 17v0q-1 3 -5 13t-5 12q-5 9 -4 20.5t7 19.5l52 74q5 6 4.5 14.5t-5.5 14.5l-55 55q-6 5 -15 5q-8 0 -14 -4l-74 -53q-9 -6 -23 -6q-10 0 -17 3
l-25 10q-9 4 -16.5 13t-9.5 18l-15 90q-1 7 -7.5 13t-14.5 6h-77q-8 0 -14 -6t-8 -13l-15 -90q-1 -9 -9 -18t-17 -12l-13 -5q-10 -4 -12 -5q-7 -4 -17 -4q-14 0 -23 6l-74 53q-6 4 -14 4q-9 0 -15 -5l-55 -55q-12 -14 -1 -29l53 -74q13 -19 3 -40l-10 -25q-4 -10 -13 -17.5
t-18 -8.5l-90 -15q-7 -2 -13 -8t-6 -14v-77q0 -8 6 -14.5t13 -7.5l90 -15q9 -2 18 -9.5t12 -16.5q1 -2 5 -12.5t5 -12.5q5 -9 4 -20.5t-6 -19.5l-53 -74q-4 -6 -4 -15t5 -14l55 -55q6 -5 16 -5q8 0 13 4l74 52q10 7 24 7q9 0 16 -3zM474 -131v0h-1q-11 1 -20 9.5t-11 19.5
l-15 89q-1 7 -7 13.5t-12 9.5h-1l-25 10v0q-5 3 -12 3q-11 0 -18 -5l-74 -53q-8 -5 -19 -5q-14 0 -23 7v1l-55 54v1q-8 8 -8.5 20.5t6.5 21.5l52 74q10 14 2 29q-1 2 -6 13q-4 12 -5 14q-2 6 -8.5 12t-13.5 7l-89 15q-11 2 -19.5 11t-9.5 20v1v77v1q1 11 9.5 20t19.5 11
l89 15q7 1 14 7t9 12v1l11 25v0q7 16 -3 30l-52 74q-7 9 -6.5 21t8.5 21v0l55 55v0q9 8 23 8q11 0 19 -6l74 -52q7 -5 17 -5q7 0 12 3q2 1 13.5 5.5t13.5 5.5q6 2 12 8.5t7 13.5l15 89q2 11 11 19.5t20 9.5h1h77h1q11 -1 20 -9.5t11 -19.5l15 -89q1 -7 7 -14t12 -9l26 -10
v-1q6 -2 13 -2q10 0 17 5l74 52q8 6 20 6q13 0 22 -8h1l54 -55h1q7 -8 7.5 -20.5t-5.5 -21.5l-53 -74q-10 -14 -2 -29q1 -2 5.5 -13.5t5.5 -13.5q2 -6 8.5 -12t13.5 -7l90 -15q11 -2 19 -11t9 -20v-1v-77v-1q-1 -11 -9.5 -20t-19.5 -11l-89 -15q-7 -1 -13.5 -7t-9.5 -12v-1
l-10 -25q-8 -16 2 -30l53 -74q6 -9 5.5 -21.5t-7.5 -20.5q-1 0 -1 -1l-54 -54l-1 -1q-9 -8 -22 -8q-11 0 -20 6l-74 53q-6 5 -17 5q-7 0 -12 -3q-2 -1 -13 -5.5t-13 -5.5q-7 -2 -13 -8.5t-7 -13.5l-15 -90q-2 -11 -11 -19t-20 -9h-1h-77zM551 -124h-34h34v0zM576 -103
q-2 -8 -9 -14t-16 -7q9 1 16 7t9 14zM438 -37l11 -64q1 -9 8 -15.5t16 -7.5q-9 1 -16 7.5t-8 15.5zM413 23q10 -4 18 -13.5t10 -20.5l15 -89q1 -6 6.5 -11.5t11.5 -5.5h77q6 0 11.5 5t6.5 12l16 89q1 11 9.5 20.5t18.5 12.5q3 1 12 5q11 4 13 5q8 4 18 4q15 0 25 -7l74 -52
q5 -4 12 -4q8 0 13 5l54 54q10 12 1 25l-52 74q-6 9 -7 21.5t3 22.5l11 24q3 10 12.5 18.5t20.5 9.5l89 16q6 1 11.5 6.5t5.5 11.5v77q0 6 -5 11.5t-12 6.5l-89 15q-11 2 -20.5 10.5t-12.5 18.5q-1 3 -5 12q-4 10 -5 13q-5 9 -4 21.5t7 21.5l52 74q10 13 -1 25l-54 54
q-5 5 -13 5q-7 0 -12 -4l-74 -52q-10 -8 -25 -8q-10 0 -18 4l-25 10q-10 4 -18.5 13.5t-9.5 20.5l-16 89q-1 6 -6.5 11t-11.5 6h-77q-6 -1 -11.5 -6t-6.5 -11l-15 -89q-2 -11 -10.5 -20.5t-18.5 -12.5q-3 -1 -12 -5q-12 -5 -13 -5q-7 -5 -18 -5q-15 0 -25 8l-74 52
q-5 4 -11 4q-8 0 -14 -5l-54 -54q-10 -12 -1 -25l52 -74q15 -21 4 -44l-10 -25q-4 -10 -13.5 -18t-20.5 -10l-89 -15q-6 -1 -11 -6.5t-6 -11.5v-77q1 -6 6 -11.5t11 -6.5l89 -16q11 -1 20.5 -9.5t12.5 -18.5q1 -3 5 -13t5 -12q5 -9 4.5 -21.5t-7.5 -21.5l-52 -74
q-9 -13 1 -25l54 -54q6 -5 14 -5q6 0 11 4l74 52q10 8 26 8q10 0 18 -4zM764 -34h3v0h-3zM839 27v0l-54 -54q-7 -6 -17 -7q10 1 17 7l54 54v0zM370 30q-13 0 -22 -6l-74 -53q-6 -5 -15 -5q9 0 15 5l74 53q9 6 22 6zM242 -29q7 -5 17 -5q-10 0 -17 5zM186 27v0l27 -27z
M615 15h-2h2zM656 29q13 0 21 -5q-8 5 -21 5zM656 29q-9 0 -15 -3q-1 0 -2 -1q1 1 2 1q6 3 15 3zM370 30q8 0 14 -3q-6 3 -14 3zM837 66l4 -5q5 -7 4.5 -17t-6.5 -17v0q6 7 6.5 17t-4.5 17zM183 60q-10 -17 3 -33v0q-13 16 -3 33zM237 175q2 -3 2 -3.5t1 -1.5q0 1 -0.5 1.5
t-2.5 3.5zM854 226l-30 -5v0v0zM89 260q1 -8 7 -15t14 -9q-8 2 -14 9t-7 15zM936 261v0q-1 -9 -7 -16t-14 -9q8 2 14 9t7 16zM936 338v-77v0v77zM914 363q9 -2 15 -9t7 -16v0q-1 9 -7 16t-15 9zM110 363q-8 -2 -14 -9t-7 -15q1 8 7 15t14 9zM823 378h1l64 -11l-64 11h-1z
M201 378v0l-10 -2l10 2v0zM797 402v-2v2zM790 419q0 -1 1 -4q1 -2 2 -3q-1 1 -2 3q0 2 -1 4zM192 527l45 -63q12 -18 3 -37l-3 -7l3 7q9 19 -3 37zM817 504l-29 -40v-1v1zM186 571q-14 -15 -2 -33q-12 17 2 33v0zM810 600l29 -29q13 -15 3 -32q10 17 -3 32zM641 572
q6 -3 15 -3q-9 0 -15 3zM677 575q-9 -6 -21 -6q12 0 21 6zM348 575q9 -6 21 -6q-12 0 -21 6zM384 573q-7 -4 -15 -4q9 0 15 4zM241 626v0l-55 -55v0zM392 576q-6 -3 -8 -3q2 1 8 3zM271 630q2 -1 3 -2l67 -48l-67 48q-1 1 -3 2zM412 584q-1 0 -2 -1q1 1 2 1zM552 723
q9 -1 16 -7.5t8 -15.5l15 -89l-15 89q-1 9 -8 15.5t-16 7.5zM258 632q-10 0 -17 -6v0q7 6 17 6zM767 632q8 0 15 -4q-7 4 -15 4zM767 632q-8 0 -14 -3q6 3 14 3zM474 723h35h-35zM474 -130v0h-1q-10 1 -19 9t-11 19l-15 89q-1 7 -7 14t-13 10v0l-26 10v0q-5 3 -12 3
q-11 0 -18 -5l-74 -53q-8 -6 -19 -6q-13 0 -22 8h-1l-54 55h-1q-7 9 -7.5 21t5.5 20l53 74q10 15 2 30q-1 2 -6 14q-4 11 -5 13q-2 7 -9 13t-14 7l-89 15q-11 2 -19 11t-9 19v1v77v1q1 10 9 19t19 11l89 15q7 1 14 7t10 13v0l10 25v1q8 16 -2 30l-53 74q-6 9 -5.5 21t7.5 20
l1 1l54 54l1 1q9 7 22 7q10 0 19 -5l74 -53q6 -5 17 -5q7 0 13 3q2 1 13 5.5t13 5.5q7 2 13 9t7 14l15 89q2 11 11 19t20 9v0h77h1q11 -1 19.5 -9t10.5 -19l15 -89q1 -7 7 -14t13 -10l26 -10v0q5 -3 13 -3q11 0 18 5l74 53q8 5 19 5q13 0 22 -7v-1l55 -54v-1q7 -8 7.5 -20
t-5.5 -21l-53 -74q-10 -14 -2 -30q1 -2 6 -13t5 -13q2 -7 9 -13t14 -7l90 -15q10 -2 18 -11t9 -20v0v-77v-1q-1 -11 -9 -19.5t-19 -10.5l-89 -15q-7 -1 -14 -7t-9 -13v0l-11 -26q-8 -16 2 -31l53 -73q6 -9 5.5 -21t-7.5 -21v0l-55 -55v0q-9 -8 -22 -8q-11 0 -19 6l-74 53
q-7 4 -18 4q-7 0 -12 -2q-2 -1 -13.5 -6t-13.5 -5q-7 -2 -13 -9t-7 -14l-15 -89q-2 -11 -11 -19t-19 -9h-1h-77zM370 29q8 0 14 -3l26 -11q8 -2 15 -10.5t8 -16.5l15 -89q2 -9 9.5 -16t16.5 -8v-3v3h77q9 1 17 7.5t9 15.5l15 90q2 8 8.5 16t15.5 11q1 0 12 5q11 4 13 5
q7 4 15 4q13 0 21 -6l74 -53q6 -5 16 -5q11 0 18 7l55 55q6 7 6.5 17t-4.5 18l-53 73q-12 17 -3 36l11 26q3 8 11 14.5t16 8.5l89 15q9 1 16 9t8 17v77q-1 9 -7.5 16.5t-15.5 9.5l-90 15q-8 1 -16 8t-11 15q0 3 -5 13q-4 11 -5 13q-10 18 2 35l53 74q5 8 4.5 18t-6.5 17
l-55 55q-7 6 -18 6q-10 0 -16 -5l-74 -52q-9 -6 -21 -6q-9 0 -15 3l-26 10q-8 3 -14.5 11t-8.5 17l-15 89q-1 9 -8.5 16t-17.5 8h-77q-9 -1 -16.5 -8t-9.5 -16l-15 -89q-1 -9 -8 -16.5t-15 -10.5q-3 -1 -13 -5q-11 -5 -13 -5q-6 -4 -15 -4q-12 0 -20 6l-74 52q-7 5 -16 5
q-12 0 -19 -6l-55 -55q-6 -7 -6.5 -17t5.5 -18l52 -74q12 -17 3 -35l-10 -26q-3 -8 -11 -15t-17 -8l-89 -15q-9 -2 -16 -9.5t-8 -16.5v-77q1 -9 8 -17t16 -9l89 -15q9 -2 16.5 -8.5t10.5 -15.5q1 -2 5 -12.5t5 -12.5q10 -19 -2 -36l-53 -74q-5 -7 -4.5 -17t6.5 -17l55 -55
q8 -6 19 -6q9 0 16 4l74 53q8 6 21 6zM474 -123v0q-9 1 -16 7t-8 15l-15 89q-2 9 -9 17.5t-16 11.5l-25 10q-7 4 -15 4q-14 0 -22 -7l-74 -52q-7 -5 -15 -5q-11 0 -18 6v0l-55 55q-5 6 -5.5 15.5t4.5 16.5l52 74q13 18 3 38q-1 2 -5.5 12.5t-5.5 12.5q-2 9 -10.5 16t-17.5 9
l-89 15q-9 1 -15 8t-7 16v0v77q1 9 7.5 16t14.5 8l89 15q9 2 17.5 9t11.5 16l11 25q9 20 -4 37l-52 74q-12 17 1 33h1l54 55q7 6 18 6q8 0 15 -5l74 -52q8 -6 21 -6q9 0 16 3q2 1 12 5q8 3 11 5v0l2 1q9 2 16 10.5t9 17.5l15 89q1 8 8 14.5t16 7.5v0h77v0q9 -1 16 -7.5
t8 -14.5l16 -89q1 -9 8 -17.5t16 -11.5l25 -11q7 -3 16 -3q13 0 22 7l74 52q6 5 15 5q10 0 17 -6v-1l55 -54q5 -7 5.5 -16.5t-4.5 -16.5l-52 -74q-5 -7 -6 -18t3 -19l6 -12q4 -10 5 -13v0v0q2 -9 10.5 -16t17.5 -9l89 -15q9 -1 15.5 -8t6.5 -16v0v-77q-1 -9 -7 -16t-15 -8
l-89 -15q-9 -2 -17.5 -9t-11.5 -16l-10 -25q-10 -20 3 -38l52 -73q5 -7 4.5 -16.5t-5.5 -16.5v0l-55 -55q-7 -6 -17 -6q-9 0 -15 5l-74 52q-9 6 -22 6q-9 0 -16 -3l-12 -6q-7 -3 -11 -4v0l-2 -1q-9 -2 -16 -10.5t-8 -17.5l-16 -89q-1 -9 -8 -15.5t-16 -6.5v0h-77zM370 36
q10 0 17 -4l25 -10q10 -4 18 -13.5t10 -19.5l15 -89q1 -7 6.5 -12t12.5 -6h77q7 1 12.5 6t6.5 12l15 89q2 10 10.5 19.5t18.5 12.5q2 1 12 5t12 5q8 4 18 4q15 0 25 -7l74 -52q5 -4 12 -4q8 0 14 5l54 54q11 13 1 27l-52 73q-6 9 -7.5 21.5t3.5 21.5l10 25q4 10 13.5 18
t19.5 10l89 15q7 1 12 6.5t6 12.5v77q-1 7 -6 12.5t-11 6.5l-90 15q-10 2 -19.5 10t-12.5 18q-1 3 -5 13t-5 12q-5 9 -4 21.5t7 20.5l52 74q10 14 -1 26l-54 55q-6 4 -14 4t-12 -3l-74 -53q-10 -7 -25 -7q-10 0 -18 4l-25 10q-10 3 -18 13t-10 20l-15 89q-1 7 -6.5 12
t-12.5 6h-77q-7 -1 -12.5 -6t-6.5 -12l-15 -89q-2 -10 -10 -19.5t-18 -12.5q-3 -1 -13 -5l-12 -6q-8 -4 -18 -4q-15 0 -24 7l-74 53q-5 3 -12 3q-9 0 -14 -4l-55 -55q-10 -12 -1 -26l53 -74q6 -8 7 -20.5t-4 -21.5l-10 -25q-3 -10 -13 -18t-20 -10l-89 -15q-7 -1 -12 -6.5
t-6 -12.5v-77q1 -7 6 -12.5t12 -6.5l89 -15q10 -2 19.5 -10.5t12.5 -17.5q1 -3 5 -13t6 -12q4 -9 3.5 -21.5t-6.5 -21.5l-53 -74q-9 -13 1 -26l55 -54q5 -5 14 -5q7 0 12 4l74 52q10 8 25 8zM474 -134v0h-1q-12 1 -21.5 10t-11.5 21l-15 89q-1 7 -6.5 13t-11.5 8h-1l-25 11
v0q-5 2 -11 2q-10 0 -16 -4l-74 -53q-9 -6 -21 -6q-15 0 -25 8v1l-55 55v0q-8 9 -8.5 22.5t5.5 22.5l53 74q9 13 2 27q-1 1 -6 13t-5 14q-2 6 -8 11t-12 6l-90 15q-12 2 -20.5 12t-9.5 22v1v77v1q1 12 10 21.5t20 11.5l90 15q6 1 12 6.5t8 11.5l1 1l10 25v0q7 14 -2 27
l-52 74q-7 10 -6.5 23t8.5 23v0l55 55v0q10 9 25 9q12 0 21 -6l74 -53q5 -4 15 -4q7 0 11 2q2 1 13.5 6t13.5 5q6 2 11.5 8t6.5 12l15 90q2 12 11.5 20.5t21.5 9.5h1h77h1q12 -1 22 -9.5t12 -20.5l15 -90q1 -6 6 -12t11 -8l26 -11h1q4 -2 11 -2q10 0 16 4l74 52q9 7 21 7
q14 0 24 -9v0l55 -55h1q7 -9 8 -22.5t-6 -23.5l-53 -74q-9 -12 -2 -26q1 -2 6 -13.5t6 -13.5q1 -6 7.5 -11.5t12.5 -6.5l89 -15q12 -2 21 -11.5t10 -21.5v-1v-77v-1q-1 -12 -10 -22t-21 -11l-89 -16q-6 -1 -12.5 -6t-8.5 -11v-1l-11 -25q-7 -15 2 -28l53 -73q7 -10 6 -23.5
t-8 -22.5h-1l-55 -55v0q-10 -9 -24 -9q-12 0 -21 6l-74 53q-6 4 -16 4q-6 0 -11 -2q-2 -2 -13.5 -6.5t-13.5 -5.5q-6 -1 -11 -7.5t-6 -12.5l-15 -89q-2 -12 -12 -21t-22 -9h-1zM414 25q10 -4 18.5 -14t10.5 -21l15 -90q1 -5 6 -9.5t10 -5.5h77q5 1 10 5.5t6 9.5l15 90
q2 11 11 21t20 13q3 2 11 5q11 4 13 5q8 5 19 5q16 0 27 -8l74 -52q4 -3 10 -3q7 0 11 4l54 54q9 10 1 22l-52 73q-7 10 -8 23t4 24l10 24q4 11 14.5 19.5t20.5 10.5l90 15q5 1 9.5 6t5.5 10v77q-1 5 -5.5 10t-9.5 6l-90 15q-11 2 -21 10.5t-13 19.5q-2 4 -5 12q-5 11 -5 12
q-6 10 -5 23.5t8 22.5l52 74q8 11 -1 22l-54 54q-4 4 -11 4q-6 0 -10 -3l-74 -52q-11 -8 -27 -8q-11 0 -19 4l-25 10q-11 3 -19.5 13.5t-10.5 21.5l-15 90q-1 5 -6 9.5t-10 4.5h-77q-5 0 -10 -4.5t-6 -9.5l-15 -90q-2 -11 -10.5 -21t-19.5 -14q-9 -3 -12 -5q-11 -4 -12 -5
q-9 -4 -20 -4q-16 0 -26 8l-74 52q-4 3 -10 3q-7 0 -12 -4l-54 -54q-9 -11 -1 -22l52 -74q7 -9 8 -22.5t-4 -23.5l-10 -25q-4 -10 -14 -18.5t-21 -10.5l-90 -15q-5 -1 -9.5 -6t-4.5 -10v-77q0 -5 4.5 -10t9.5 -6l90 -15q11 -2 21 -11t14 -19q1 -3 4 -13q5 -10 6 -11
q5 -11 4 -24t-8 -23l-52 -74q-8 -11 1 -21l54 -54q5 -4 12 -4q6 0 10 3l74 52q11 8 27 8q10 0 19 -4zM512.5 100q-82.5 0 -141 58.5t-58.5 141t58.5 141t141 58.5t141 -58.5t58.5 -141t-58.5 -141t-141 -58.5zM512.5 492q-79.5 0 -136 -56.5t-56.5 -136t56.5 -136t136 -56.5
t136 56.5t56.5 136t-56.5 136t-136 56.5zM513 96q-84 0 -143.5 59.5t-59.5 143.5t59.5 143.5t143.5 59.5t143.5 -59.5t59.5 -143.5t-59.5 -143.5t-143.5 -59.5zM512.5 489q-78.5 0 -134 -55.5t-55.5 -134t55.5 -134t134 -55.5t134 55.5t55.5 134t-55.5 134t-134 55.5z
M513 495q81 0 138.5 -57.5t57.5 -138.5q0 81 -57.5 138.5t-138.5 57.5t-138.5 -57.5t-57.5 -138.5q0 81 57.5 138.5t138.5 57.5zM512.5 97q-83.5 0 -143 59.5t-59.5 143t59.5 143t143 59.5t143 -59.5t59.5 -143t-59.5 -143t-143 -59.5zM512.5 496q-81.5 0 -139 -57.5
t-57.5 -139t57.5 -139.5t139 -58t139.5 58t58 139.5t-58 139t-139.5 57.5zM512.5 104q-80.5 0 -138 57.5t-57.5 138t57.5 138t138 57.5t138 -57.5t57.5 -138t-57.5 -138t-138 -57.5zM512.5 489q-78.5 0 -134 -55.5t-55.5 -134t55.5 -134.5t134 -56t134.5 56t56 134.5
t-56 134t-134.5 55.5zM513 94q-85 0 -145.5 60t-60.5 145t60.5 145.5t145.5 60.5t145 -60.5t60 -145.5t-60 -145t-145 -60zM512.5 486q-77.5 0 -132 -54.5t-54.5 -132t54.5 -132t132 -54.5t132 54.5t54.5 132t-54.5 132t-132 54.5z" />
    <glyph glyph-name="shoujianxiang" unicode="&#xe6f8;" 
d="M974 -180h-924q-7 0 -12.5 5.5t-5.5 12.5v577q0 8 5.5 13.5t13 5.5t12.5 -5.5t5 -13.5v-559h888v559q0 8 5 13.5t12.5 5.5t13 -5.5t5.5 -13.5v-577q0 -7 -5.5 -12.5t-12.5 -5.5zM828 330q-8 0 -13 5.5t-5 13.5v395h-596v-395q0 -8 -5 -13.5t-13 -5.5t-13 5.5t-5 13.5v413
q0 7 5 12.5t13 5.5h632q8 0 13 -5.5t5 -12.5v-413q0 -8 -5 -13.5t-13 -5.5zM512 109q-5 0 -10 2l-461 289q-7 4 -8.5 11.5t2.5 13.5t11.5 8t13.5 -2l452 -283l452 283q7 4 14 2t11 -8t2.5 -13.5t-8.5 -11.5l-461 -289q-5 -2 -10 -2zM974 397q-5 0 -10 3l-144 90
q-6 4 -8 11.5t2 14t11.5 8t13.5 -2.5l144 -90q7 -4 8.5 -11.5t-2.5 -13.5q-5 -9 -15 -9zM50 397q-10 0 -15 9q-4 6 -2.5 13.5t8.5 11.5l144 90q6 4 13.5 2.5t11.5 -8t2 -14t-8 -11.5l-144 -90q-5 -3 -10 -3zM706 598h-388q-8 0 -13.5 5t-5.5 13t5.5 13t13.5 5h388
q8 0 13.5 -5t5.5 -13t-5.5 -13t-13.5 -5zM706 500h-388q-8 0 -13.5 5.5t-5.5 13t5.5 13t13.5 5.5h388q8 0 13.5 -5.5t5.5 -13t-5.5 -13t-13.5 -5.5zM706 403h-388q-8 0 -13.5 5.5t-5.5 13t5.5 13t13.5 5.5h388q8 0 13.5 -5.5t5.5 -13t-5.5 -13t-13.5 -5.5zM706 306h-388
q-8 0 -13.5 5.5t-5.5 13t5.5 13t13.5 5.5h388q8 0 13.5 -5.5t5.5 -13t-5.5 -13t-13.5 -5.5z" />
    <glyph glyph-name="duigou" unicode="&#xe658;" 
d="M378 -38q-22 0 -38 15l-319 311q-16 16 -16 38t16 37.5t38.5 15.5t38.5 -16l280 -274l548 535q16 15 38.5 15t38 -15.5t15.5 -37.5t-15 -37l-586 -572q-16 -15 -39 -15v0z" />
    <glyph glyph-name="iconqueren" unicode="&#xe62c;" 
d="M511 812q-104 0 -198.5 -40.5t-163 -109t-109 -163t-40.5 -198.5t40.5 -199t109 -163.5t163 -108.5t198.5 -40t199 40t163.5 108.5t109 163.5t40.5 199t-40.5 198.5t-109 163t-163.5 109t-199 40.5v0zM511 -163q-94 0 -180 37t-148 99t-98.5 147.5t-36.5 180t36.5 180.5
t98.5 148t148 98.5t180.5 36.5t180 -36.5t147.5 -98.5t99 -148t37 -180.5t-37 -180t-99 -147.5t-147.5 -99t-180.5 -37v0zM832 469l-381 -381q-10 -10 -23 -10t-23 10l-214 214q-10 10 -10 23t9.5 22.5t22.5 9.5t23 -10l192 -192l359 359q9 9 22.5 9t22.5 -9t9 -22.5
t-9 -22.5v0zM832 469z" />
    <glyph glyph-name="daochu3" unicode="&#xe637;" 
d="M542 -1h-7l-7 5q-6 7 -5 18q0 15 2 32t9.5 47t18.5 57t32.5 57.5t50 52.5t71.5 38t96 18v78q-1 13 7 22q13 14 35 5l4 -2l144 -157q15 -17 15 -36q0 -20 -18 -38l-145 -166q-11 -12 -24 -12q-14 0 -21 13q-4 9 -4 23v94q-22 1 -46 -3t-59 -15.5t-69.5 -42t-59.5 -75.5
q-7 -13 -20 -13v0zM790 184q9 0 26 -2l15 -2v-112l133 152q8 9 8 14t-6 13l-127 139v-97h-18q-53 0 -95.5 -14t-69 -35t-46.5 -50.5t-29.5 -55.5t-15.5 -54q27 32 60 54.5t65 32.5t55 13.5t45 3.5v0zM790 184zM746 -18q-13 -4 -27 -4h-401q-39 0 -66.5 26t-27.5 65v420
q0 39 27.5 66t66.5 27h401v0h4h1h3h2h3q1 -1 2 -1h1.5t3.5 -1h1q2 0 3 -1v0q3 -1 6 -1v0q31 -11 49 -40v0q13 -20 14 -45h44v2q0 23 -7 43v0q-13 38 -46 62.5t-74 25.5h-2h-1v0h-414q-54 0 -92.5 -38t-38.5 -93v-430q0 -54 38.5 -92.5t92.5 -38.5h413q62 0 101 48h-80v0z
M746 -18zM291 416h379v-44h-379v44zM291 300h277v-44h-277v44zM291 189h198v-44h-198v44zM188 82q-33 7 -54 31.5t-21 57.5v420q0 39 27 66.5t66 27.5h401v0h4h1h4q0 -1 1 -1h3h2l1.5 -0.5t3.5 -0.5l1 -1h3h1q2 -1 5 -2v0q31 -11 49 -39v0q7 -11 11 -24h46q-2 12 -6 24v0
q-13 38 -45.5 62.5t-74.5 25.5h-2h-0.5h-0.5h-414q-54 0 -92.5 -38.5t-38.5 -92.5v-430q0 -51 34 -88.5t85 -42.5v45z" />
    <glyph glyph-name="shejituzhi" unicode="&#xe6d9;" 
d="M182 450h50v-39h-50v39zM182 184h51v-39h-51v39zM181 273h51v-39h-51v39zM188 625h646v-31h-646v31zM389 -33h453v396l-32 -28v0v0v0v0v0v0v0v0v0v0v0v0v0v0v0v0v0v-1v0h-1v0v0v0v0v0v0v0v0v0v0v0v0v0v0v0l-1 -1v0v0v0v0v0v0v0v0v0v0v0h-1v-1v0v0v0v0v0v0v0h-1v0v0v-1v0
v0v0v0v0h-1v0v0v-1v0v0v0h-1v0v0v0v-1v0v0h-1v0v0v0v0v-1h-1v0v0v0v0v0l-1 -1v0v0v0v0v0l-1 -1v0v0v0v0h-1v-1v0v0v0h-1v0v-1v0v0h-1v0v-1v0h-1v0v0v-1v0h-1v0v0v-1h-1v0v0v0l-1 -1v0v0v0l-1 -1v0v0v0h-1v-1v0v0h-1v-1v0v0h-1v-1v0h-1v0v-1v0h-1v0v-1h-1v0v0v-1h-1v0v0
l-1 -1v0v0h-1v-1v0h-1v-1v0h-1v0v-1h-1v0v-1h-1v0v0l-1 -1v0v0l-1 -1v0v0h-1v-1v0h-1v-1v0h-1v-1v0h-1v-1h-1v0v-1h-1v0v-1h-1v0l-1 -1v0v0l-1 -1v0v0l-1 -1v0h-1v-1v0h-1v-1h-1v0v-1h-1v0l-1 -1v0l-1 -1v0v0l-1 -1v0h-1v-1h-1v-1v0h-1v-1h-1v0l-1 -1v0v-1h-1v0l-1 -1v0
l-1 -1v0h-1v-1v0l-1 -1v0h-1v-1h-1v-1h-1v0l-1 -1v0l-1 -1v0h-1v-1h-1v-1h-1v-1v0h-1v-1h-1v-1h-1v-1h-1v0l-1 -1v0l-1 -1v0l-1 -1v0l-1 -1h-1v0l-1 -1v0l-1 -1v0l-1 -1v0l-1 -1v0l-1 -1v0h-1v-1h-1v-1h-1v-1h-1l-1 -1v0l-1 -1v0l-1 -1v0l-1 -1v0l-1 -1v0l-1 -1h-1v-1h-1v-1
h-1v-1h-1h-1v-1h-1v-1h-1v-1l-1 -1h-1v-1h-1v-1h-1v-1h-1l-1 -1v0l-1 -1v0l-1 -1h-1v-1h-1v-1h-1l-1 -1v0l-1 -1v0l-1 -1h-1v-1h-1v-1l-1 -1h-1v-1h-1l-1 -1v0l-1 -1v0l-1 -1h-1v-1l-1 -1h-1v-1h-1v-1h-1l-1 -1v0l-1 -1l-1 -1v0l-1 -1h-1v-1h-1l-1 -1v-1h-1l-1 -1v0l-1 -1v0
l-1 -1l-1 -1v0l-1 -1h-1v-1h-1l-1 -1v-1h-1l-1 -1v0l-1 -1l-1 -1h-1v-1h-1l-1 -1v0l-1 -1l-1 -1v0l-1 -1h-1v-1l-1 -1h-1v-1l-1 -1h-1l-1 -1v0l-1 -1l-1 -1v0l-1 -1h-1v-1l-1 -1h-1l-1 -1v0l-1 -1l-1 -1v0l-1 -1l-1 -1h-1v-1h-1l-1 -1v-1h-1l-1 -1l-1 -1v0l-1 -1l-1 -1h-1
v-1h-1l-1 -1v-1h-1l-1 -1l-1 -1v0l-1 -1l-1 -1h-1v-1l-1 -1h-1l-1 -1v-1h-1l-1 -1l-1 -1v0l-1 -1l-1 -1h-1v-1h-1l-1 -1l-1 -1v0l-1 -1l-1 -1h-1l-1 -1v-1l-1 -1h-1l-1 -1v-1h-1l-1 -1l-1 -1v0l-1 -1l-1 -1h-1l-1 -1v-1h-1l-1 -1l-1 -1h-1v-1l-1 -1h-1l-1 -1v-1l-1 -1h-1
l-1 -1l-1 -1v0l-1 -1l-1 -1h-1l-1 -1v-1l-1 -1h-1l-1 -1l-1 -1v0l-1 -1l-1 -1h-1l-1 -1l-1 -1v-1h-1l-1 -1l-1 -1h-1v-1l-1 -1l-1 -1h-1l-1 -1l-1 -1v-1h-1l-1 -1l-1 -1h-1l-1 -1v-1l-1 -1h-1l-1 -1l-1 -1l-1 -1v0l-1 -1l-1 -1h-1l-1 -1l-1 -1v-1h-1l-1 -1l-1 -1l-1 -1h-1
l-1 -1v-1l-1 -1h-1l-1 -1l-1 -1l-1 -1h-1v-1l-1 -1l-1 -1h-1l-1 -1l-1 -1l-1 -1v0l-1 -1l-1 -1l-1 -1h-1l-1 -1l-1 -1l-1 -1v0l-1 -1l-1 -1l-1 -1l-1 -1h-1l-1 -1l-1 -1v-1h-1l-1 -1l-1 -1l-1 -1h-1l-1 -1l-1 -1l-1 -1v-1h-1l-1 -1l-1 -1l-1 -1h-1l-1 -1l-1 -1l-1 -1v-1h-1
l-1 -1l-1 -1l-1 -1l-1 -1h-1l-1 -1l-1 -1l-1 -1h-1v-1l-1 -1l-1 -1l-1 -1h-1l-1 -1l-1 -1l-1 -1l-1 -1h-1l-1 -1v-1l-1 -1l-1 -1h-1l-1 -1l-1 -1l-1 -1l-1 -1l-1 -1h-1l-1 -1l-1 -1l-1 -1l-1 -1v0l-1 -1l-1 -1l-1 -1l-1 -1h-1l-1 -1l-1 -1l-1 -1l-1 -1l-1 -1h-1l-1 -1l-1 -1
l-1 -1l-1 -1v0l-1 -1l-1 -1l-1 -1l-1 -1l-1 -1h-1l-1 -1l-1 -1l-1 -1l-1 -1l-1 -1h-1l-1 -1l-1 -1l-1 -1l-1 -1l-1 -1h-1l-1 -1l-1 -1v-1l-1 -1l-1 -1l-1 -1h-1l-1 -1l-1 -1l-1 -1l-1 -1l-1 -1h-1l-1 -1l-1 -1l-1 -1l-1 -1l-1 -1l-1 -1h-1l-1 -1l-1 -1l-1 -1l-1 -1l-1 -1
l-1 -1h-1l-1 -1l-1 -1l-1 -1l-1 -1l-1 -1l-1 -1h-1l-1 -1l-1 -1l-1 -1l-1 -1l-1 -1l-1 -1h-1l-1 -1l-1 -1l-1 -1l-1 -1l-1 -1l-1 -1l-1 -1v0zM786 -25h-20v18q0 10 10 10t10 -10v-18v0zM694 -25h-19v18q0 10 9.5 10t9.5 -10v-18v0zM603 -25h-19v18q0 10 9.5 10t9.5 -10v-18
v0zM512 -25h-20v18q0 10 10 10t10 -10v-18v0zM631 102l120 105l44 38l-1 -223h-255zM68 708v-821q0 -14 11 -23.5t25 -9.5h816q13 0 23.5 8.5t10.5 20.5v833q0 9 -10 19.5t-17 10.5h-828q-13 0 -22 -12t-9 -26v0zM880 -83l-24 -1h-707q-4 0 -12.5 8t-8.5 12v715q0 8 9 18.5
t15 10.5h718q8 0 16.5 -10.5t8.5 -18.5v-705q0 -18 -15 -29v0zM617 362h-137v-144h137v144v0zM590 246h-83v88h83v-88zM357 368q-31 0 -52.5 -23t-21.5 -55t21.5 -55t52.5 -23t52.5 23t21.5 55t-21.5 55t-52.5 23v0zM357 240q-20 0 -33.5 14.5t-13.5 35.5t13.5 35.5
t33.5 14.5t33.5 -14.5t13.5 -35.5t-13.5 -35.5t-33.5 -14.5zM549 403q30 0 52 22.5t22 55t-22 55t-52.5 22.5t-52.5 -22.5t-22 -55t22 -55t53 -22.5v0zM548.5 530q19.5 0 33.5 -14.5t14 -35t-14 -35t-33.5 -14.5t-33.5 14.5t-14 35t14 35t33.5 14.5zM357 558
q-31 0 -52.5 -22.5t-21.5 -55t21.5 -55t52.5 -22.5t52.5 22.5t21.5 55t-21.5 55t-52.5 22.5v0zM357 431q-20 0 -33.5 14.5t-13.5 35t13.5 35t33.5 14.5t33.5 -14.5t13.5 -35t-13.5 -35t-33.5 -14.5zM182 538h50v-38h-50v38zM182 362h50v-39h-50v39zM182 95h51v-40h-51v40z
M182 6h51v-40h-51v40z" />
    <glyph glyph-name="guanbi1" unicode="&#xe605;" 
d="M934 -150q-12 0 -20 8l-402 402l-402 -402q-8 -8 -20 -8t-20 8t-8 20t8 20l402 402l-402 402q-8 8 -8 20t8 20t20 8t20 -8l402 -402l402 402q8 8 20 8t20 -8t8 -20t-8 -20l-402 -402l402 -402q8 -8 8 -20t-8 -20t-20 -8z" />
    <glyph glyph-name="xiangshang01" unicode="&#xe606;" 
d="M873 148l-361 361v0v0v0v0l-361 -361q-15 -14 -15 -31q0 -16 11.5 -27.5t27.5 -11.5q15 0 28 11v0l309 309l308 -309v0q13 -11 28 -11q16 0 27.5 11.5t11.5 27.5q0 17 -14 31z" />
    <glyph glyph-name="mima" unicode="&#xe634;" 
d="M923 -212h-822q-29 0 -49 19.5t-20 47.5v473q0 27 20 46.5t49 19.5h822q29 0 49 -19.5t20 -46.5v-473q0 -28 -20 -47.5t-49 -19.5v0v0zM101 350q-10 0 -16.5 -6.5t-6.5 -15.5v-473q0 -10 6.5 -16.5t16.5 -6.5h822q10 0 16.5 6.5t6.5 16.5v473q0 9 -6.5 15.5t-16.5 6.5
h-822v0v0zM805 361q-9 0 -16 6.5t-7 15.5v122q0 109 -79 186t-191 77t-191.5 -77t-79.5 -186v-122q0 -9 -6.5 -15.5t-16 -6.5t-16 6.5t-6.5 15.5v122q0 127 92.5 217t223.5 90t223.5 -90t92.5 -217v-122q0 -9 -6.5 -15.5t-16.5 -6.5v0v0zM580 -57h-137v114q-49 35 -49 93
q0 47 34.5 81t83.5 34t83.5 -33.5t34.5 -81.5q0 -58 -50 -93v-114v0v0zM489 -12h46v94l12 7q37 20 37 61q0 29 -21 49.5t-51 20.5t-51 -20.5t-21 -49.5q0 -41 37 -61l12 -6v-95v0v0z" />
    <glyph glyph-name="comments" unicode="&#xe66e;" 
d="M960 812h-704q-27 0 -45.5 -18.5t-18.5 -45.5v-96h-128q-27 0 -45.5 -18.5t-18.5 -45.5v-480q0 -27 18.5 -45.5t45.5 -18.5h112q7 0 11.5 -4.5t4.5 -11.5v-176q0 -19 11 -35.5t29 -23.5q11 -5 24 -5q26 0 45 19l227 226q8 11 26 11h246q27 0 45.5 18.5t18.5 45.5v128h96
q27 0 45.5 18.5t18.5 45.5v448q0 27 -18.5 45.5t-45.5 18.5zM832 108q0 -13 -9.5 -22.5t-22.5 -9.5h-246q-13 0 -24 -4t-14 -8l-4 -4l-224 -224q-26 -22 -45 -13t-19 29v192q0 13 -9.5 22.5t-22.5 9.5h-128q-13 0 -22.5 9.5t-9.5 22.5v480q0 13 9.5 22.5t22.5 9.5h736
q13 0 22.5 -9.5t9.5 -22.5v-480zM992 300q0 -13 -9.5 -22.5t-22.5 -9.5h-96v320q0 27 -18.5 45.5t-45.5 18.5h-576v96q0 13 9.5 22.5t22.5 9.5h704q13 0 22.5 -9.5t9.5 -22.5v-448zM208 428h208q7 0 11.5 4.5t4.5 11.5t-4.5 11.5t-11.5 4.5h-208q-7 0 -11.5 -4.5t-4.5 -11.5
t4.5 -11.5t11.5 -4.5zM656 364h-448q-7 0 -11.5 -4.5t-4.5 -11.5t4.5 -11.5t11.5 -4.5h448q7 0 11.5 4.5t4.5 11.5t-4.5 11.5t-11.5 4.5zM544 268h-336q-7 0 -11.5 -4.5t-4.5 -11.5t4.5 -11.5t11.5 -4.5h336q7 0 11.5 4.5t4.5 11.5t-4.5 11.5t-11.5 4.5z" />
    <glyph glyph-name="jingpaidanju" unicode="&#xe623;" 
d="M697.5 347q-5.5 0 -10 -4t-4.5 -10v-419h-624v413h116q6 0 10 4t4 10v116h81q6 0 10 4t4 10t-4 10t-10 4h-95q-7 0 -11 -6q-1 0 -2 -0.5t-2 -1.5l-126 -126q0 -1 -0.5 -2.5l-0.5 -1.5q-3 -5 -3 -6v-441q0 -6 4 -10t10 -4h653q6 0 10 4t4 10v433q1 6 -3.5 10t-10 4z
M160 437v-82h-81zM608 161h-480q-5 0 -9.5 -4t-4.5 -9.5t4.5 -10t9.5 -4.5h480q6 0 10 4.5t4 10t-4 9.5t-10 4zM608 39h-480q-5 0 -9.5 -4t-4.5 -10t4.5 -10t9.5 -4h480q6 0 10 4t4 10t-4 10t-10 4zM333 654h212q7 0 12.5 5t5.5 12.5t-5.5 13t-12.5 5.5h-212
q-7 0 -12.5 -5.5t-5.5 -13t5.5 -12.5t12.5 -5zM333 253h212q7 0 12.5 5t5.5 13t-5.5 13t-12.5 5h-212q-7 0 -12.5 -5t-5.5 -13t5.5 -13t12.5 -5zM965 496h-425v19.5v39v44v17.5h-99h-100v-288h199v111h426q12 0 20 8.5t8 19.5q0 12 -8.5 20.5t-20.5 8.5z" />
    <glyph glyph-name="fabu1" unicode="&#xe702;" 
d="M768 10h-525q-43 0 -74 31t-31 74v525q0 45 32 81.5t75 36.5h294v-54h-294q-22 0 -37.5 -15.5t-15.5 -37.5l-1 -536q0 -21 15.5 -36.5t36.5 -15.5l536 1q22 0 37.5 15.5t15.5 37.5v294h54v-294q0 -43 -36.5 -75t-81.5 -32v0zM859 517q-11 0 -19 8t-8 19v128l-407 -388
q-8 -7 -19 -7t-19 7.5t-8 18t8 18.5l402 384l-117 -1q-11 0 -19 8t-8 19t8 19t19 8h186q12 0 20 -7.5t8 -18.5v-188q0 -11 -8 -19t-19 -8z" />
    <glyph glyph-name="excel" unicode="&#xe686;" 
d="M462 229l-69 -147h85l29 88l29 -88h85l-68 147l63 143h-85l-24 -84l-24 84h-85l64 -143v0zM588 833v-245h244v-651h-650v896h406v0zM226 470v-485h562v485h-562v0zM621 833l216 -217h-216v217v0z" />
    <glyph glyph-name="word" unicode="&#xe687;" 
d="M589 831v-244h244v-649h-649v893h405v0zM228 465v-484h561v484h-561v0zM701 363l-70 -280h-90l-32 162l-33 -162h-90l-69 280h88l32 -173l34 173h76l33 -173l32 173h89v0zM617 831l216 -215h-216v215v0z" />
    <glyph glyph-name="daishouhuo" unicode="&#xe647;" 
d="M757.5 -88q-46.5 0 -79.5 33t-33 80v13h-194q-4 -2 -8 -2h-62v0q-5 -43 -37 -71.5t-75 -28.5t-75 28.5t-37 71.5h-61q-8 0 -13.5 5t-5.5 13v290q0 5 3 10l99 163q36 56 104 56h141q3 51 40.5 87t88.5 36h277q53 0 91 -38t38 -91v-428q0 -39 -26 -68t-64 -33v-13
q0 -47 -32.5 -80t-79 -33zM757 100q-31 0 -53 -22t-22 -53t22 -53.5t53 -22.5t53 22.5t22 53.5t-22 53t-53 22zM269 124q-31 0 -53 -22.5t-22 -53.5t22 -53t53 -22t53 22t22 53t-22 53.5t-53 22.5zM269 161q40 0 70.5 -25t39.5 -63h2h43v462h-141q-48 0 -72 -38l-97 -158
v-266h45q9 38 39.5 63t70.5 25zM462 75h195q14 28 41 45t59 17t59 -17t42 -45q26 0 45 19t19 45v428q0 38 -27 64.5t-65 26.5h-277q-37 0 -64 -26.5t-27 -64.5v-492v0zM310 321h-119q-8 0 -13.5 5.5t-5.5 13t5.5 13t13.5 5.5h100v101q0 7 5.5 12.5t13.5 5.5t13 -5.5t5 -12.5
v-119q0 -8 -5 -13.5t-13 -5.5z" />
    <glyph glyph-name="xiangzuo" unicode="&#xe616;" 
d="M803 -101q0 20 -19 36q-10 8 -32 26t-33 28q-7 6 -25 21t-26 22l-58 49q-3 2 -8 6t-6 6q-37 31 -40 33l-47 40q-1 0 -2 1l-2 2l-98 82q-56 46 -58 49l3 3l7 6q5 4 13.5 11t12 10.5t14 11.5t15.5 13q4 4 12.5 10.5t9.5 7.5l326 274q28 21 34.5 32t5.5 25t-9 24
q-23 27 -58 19q-9 -2 -17 -7.5t-17.5 -14t-13.5 -11.5l-114 -95q-1 -1 -2.5 -2t-1.5 -2q-5 -4 -14 -11.5t-13 -10.5l-61 -51q-4 -4 -19.5 -16.5t-20.5 -17.5l-17 -15q-10 -7 -31 -25t-31 -26q-1 -1 -4 -3.5t-4 -3.5l-62 -52l-8 -7l-14 -11l-1.5 -1.5l-2.5 -2.5l-17 -14
q-2 -2 -9 -7.5t-9.5 -8t-6 -8t-5.5 -11.5q-5 -18 2.5 -31t24.5 -26l57 -48q6 -4 17.5 -14t17.5 -15l18 -15q3 -3 14 -11.5t16 -13.5l66 -55q1 -1 9 -8q3 -2 8.5 -7t8.5 -7q1 -1 7.5 -6.5t10.5 -8.5q1 -1 4 -3.5t5 -3.5l35 -30q6 -5 9 -8q1 0 2 -1l2 -2l4 -4q1 0 4 -3t5 -4
l26 -22q2 -1 5 -3.5t4 -3.5l18 -15q4 -4 13 -11t13 -11l70 -59q6 -4 11 -6q27 -11 52 3t25 40v0z" />
    <glyph glyph-name="loupan" unicode="&#xe648;" 
d="M546 -95h-412q-6 0 -10.5 4.5t-4.5 10.5v760q0 6 4.5 10.5t10.5 4.5h412q7 0 11.5 -4.5t4.5 -10.5v-760q0 -6 -4.5 -10.5t-11.5 -4.5zM149 -64h382v728h-382v-728zM890 -95h-344q-6 0 -10.5 4.5t-4.5 10.5v553q0 6 4.5 10.5t10.5 4.5h344q6 0 10.5 -4.5t4.5 -10.5v-553
q0 -6 -4.5 -10.5t-10.5 -4.5zM562 -64h313v521h-313v-521zM256 542h31v-346h-31v346zM394 542h30v-346h-30v346zM787 -95h-138q-6 0 -10.5 4.5t-4.5 10.5v138q0 7 4.5 11.5t10.5 4.5h138q6 0 10.5 -4.5t4.5 -11.5v-138q0 -6 -4.5 -10.5t-10.5 -4.5zM665 -64h107v107h-107
v-107zM409 -95h-137q-7 0 -11.5 4.5t-4.5 10.5v138q0 7 4.5 11.5t11.5 4.5h137q6 0 10.5 -4.5t4.5 -11.5v-138q0 -6 -4.5 -10.5t-10.5 -4.5zM287 -64h107v107h-107v-107zM649 212h138v-31h-138v31zM649 350h138v-31h-138v31z" />
    <glyph glyph-name="yonghu1" unicode="&#xe671;" 
d="M512 222q-109 0 -186.5 77.5t-77.5 187.5t77.5 188t186.5 78t186.5 -78t77.5 -188t-77.5 -187.5t-186.5 -77.5zM512 722q-97 0 -165.5 -69t-68.5 -166t68.5 -166t165.5 -69t165.5 69t68.5 166t-68.5 166t-165.5 69zM943 -153h-862q-7 0 -11.5 4.5t-4.5 11.5v6
q0 100 60 185.5t163 135.5t224 50t224 -50t163 -135.5t60 -185.5v-5q0 -6 -5 -11.5t-11 -5.5zM96 -122h832q-4 91 -60.5 167t-151 120t-204.5 44q-111 0 -206 -44t-151 -120.5t-59 -166.5z" />
    <glyph glyph-name="yaoqinghaoyoupengyou3" unicode="&#xe6a7;" 
d="M510 747q-91 0 -173.5 -35t-142.5 -95t-95 -142.5t-35 -173.5t35 -173.5t95 -142.5t142.5 -95t173.5 -35t173.5 35t142.5 95t95 142.5t35 173.5t-35 173.5t-95 142.5t-142.5 95t-173.5 35zM510.5 -103q-109.5 0 -202.5 54t-147.5 147t-54.5 202.5t54.5 202.5t147.5 147.5
t202.5 54.5t202.5 -54.5t147 -147.5t54 -202.5t-54 -202.5t-147 -147t-202.5 -54zM412 387q19 0 38 7q-14 24 -14 51q0 41 29 71q12 12 28 19q-6 9 -13 16q-28 28 -68 28t-68.5 -28t-28.5 -68t28.5 -68t68.5 -28zM510 320q-45 28 -98 28q-82 0 -139.5 -61t-57.5 -147h122
q16 67 69.5 119.5t103.5 60.5zM509 360q30 -29 71.5 -29t71 29t29.5 71t-29.5 71.5t-71.5 29.5q-22 0 -44 -11q-15 -7 -27 -19q-29 -29 -29 -71q0 -27 13 -50q7 -12 16 -21zM580 291h-4q-70 -2 -124 -48t-71 -117q-6 -26 -6 -53h411q0 90 -60.5 154t-145.5 64z" />
    <glyph glyph-name="daishouhuo1" unicode="&#xe649;" 
d="M904 -147h-784q-23 0 -39.5 16.5t-16.5 39.5v553q0 23 4 35l62 203q5 18 20.5 30t32.5 12h658q17 0 32.5 -12t20.5 -30l62 -203q4 -12 4 -35v-553q0 -23 -16.5 -39.5t-39.5 -16.5zM183 710q-7 0 -14 -6t-9 -13l-62 -203q-2 -8 -2 -26v-553q0 -10 7 -17t17 -7h784
q10 0 17 7t7 17v553q0 18 -2 26l-62 203q-2 7 -9 13t-14 6h-658zM955 452q0 -1 -2 -1h-874q-2 0 -2 1v29q0 1 2 1h874q2 0 2 -1v-29zM861 215q0 -7 -4.5 -11.5t-10.5 -4.5h-318q-7 0 -11.5 4.5t-4.5 11.5v0q0 6 4.5 10.5t11.5 4.5h318q6 0 10.5 -4.5t4.5 -10.5v0zM861 94
q0 -7 -4.5 -11.5t-10.5 -4.5h-217q-7 0 -11.5 4.5t-4.5 11.5v0q0 6 4.5 10.5t11.5 4.5h217q6 0 10.5 -4.5t4.5 -10.5v0z" />
    <glyph glyph-name="gongyingshangguanli1" unicode="&#xe692;" 
d="M607 565h-187q-9 0 -15 6.5t-6 15.5v180q0 9 6 15.5t15 6.5h188q9 0 15 -6t6 -14v-182q0 -9 -6.5 -15.5t-15.5 -6.5v0zM435 601h157v151h-157v-151zM984 -197h-193q-8 0 -14 6t-6 14v186q0 9 6 14.5t14 5.5h193q8 0 14 -5.5t6 -14.5v-186q0 -8 -6 -14t-14 -6v0zM808 -161
h159v154h-159v-154zM610 -197h-192q-9 0 -15 6t-6 14v186q0 9 6 14.5t15 5.5h192q8 0 14 -5.5t6 -14.5v-186q0 -8 -6 -14t-14 -6v0zM434 -161h160v154h-160v-154zM232 -197h-192q-9 0 -15 6t-6 14v186q0 9 6 14.5t15 5.5h192q8 0 14 -5.5t6 -14.5v-186q0 -8 -6 -14t-14 -6v0
zM56 -161h160v154h-160v-154zM513.5 -7q-7.5 0 -13 5.5t-5.5 12.5v572q0 8 5.5 13t13 5t13 -5t5.5 -13v-572q0 -7 -5.5 -12.5t-13 -5.5zM883 -7q-7 0 -12.5 5.5t-5.5 12.5q0 6 3 11v226h-714v-233q0 -8 -5.5 -13.5t-13 -5.5t-13 5.5t-5.5 13.5v249q0 8 6 14t15 6h747
q8 0 14 -6t6 -14v-249q0 -9 -6.5 -15.5t-15.5 -6.5v0z" />
    <glyph glyph-name="daochu" unicode="&#xe680;" 
d="M167 684h66v-768h-66v768zM173 -18h252v-66h-252v66zM167 686h258v-66h-258v66zM361 362h449v-126h-449v126zM937 296l-254 -248v496z" />
    <glyph glyph-name="key" unicode="&#xe688;" horiz-adv-x="1025" 
d="M470 342q6 0 10 4l363 317l-22 24l-362 -317q-12 -11 -1 -23q5 -5 12 -5zM326 -212q71 0 131.5 26.5t99.5 69.5t61 97t22 111q0 70 -26 121l145 73q9 4 9 14v128h96h1.5h2.5q16 1 21.5 7.5t6.5 24.5v128h96q4 0 9 -1q11 -1 17.5 4.5t5.5 19.5v9v145q0 19 -14 33t-33 14
h-124q-18 0 -31 -12l-422 -370q-48 10 -74 10q-88 0 -163.5 -43.5t-119 -119t-43.5 -163.5t43.5 -163.5t119 -119t163.5 -43.5zM326 408q25 0 75 -10q8 -2 14 3l428 375q4 4 10 4h124q6 0 10.5 -4.5t4.5 -10.5v-145h-112q-7 0 -11.5 -4.5t-4.5 -11.5v-144h-112
q-7 0 -11.5 -4.5t-4.5 -11.5v-134l-151 -76q-7 -3 -8.5 -10t2.5 -13q11 -16 20 -49.5t9 -69.5q0 -51 -19.5 -99t-55 -87t-89.5 -62.5t-118 -23.5q-122 0 -208 86t-86 208t86 208t208 86zM272 -52q46 0 79 33t33 79t-33 79t-79 33t-79 -33t-33 -79t33 -79t79 -33zM272 140
q33 0 56.5 -23.5t23.5 -56.5t-23.5 -56.5t-56.5 -23.5t-56.5 23.5t-23.5 56.5t23.5 56.5t56.5 23.5z" />
    <glyph glyph-name="shapes" unicode="&#xe65c;" 
d="M683 -212v0h-512q-25 0 -39 21.5t0 42.5l256 384q13 19 36.5 19t36.5 -19l252 -380q12 -13 12 -30q0 -16 -11.5 -27t-30.5 -11zM252 -127h354l-179 265zM981 87h-341q-19 0 -31 11.5t-12 30.5v342q0 19 12 30.5t31 11.5h341q20 0 31.5 -11.5t11.5 -30.5v-342
q0 -19 -11.5 -30.5t-31.5 -11.5zM683 172h256v256h-256v-256zM277.5 257q-115.5 0 -196.5 81t-81 196.5t81 196.5t196.5 81t196.5 -81t81 -196.5t-81 -196.5t-196.5 -81zM277 727q-80 0 -136 -56t-56 -136t56 -136t136 -56t136 56t56 136t-56 136t-136 56z" />
    <glyph glyph-name="right-arrow" unicode="&#xe706;" 
d="M586 629q9 10 22.5 10t23.5 -10l317 -317q10 -9 9.5 -22.5t-9.5 -23.5v0q-10 -9 -23 -9t-23 9l-317 317q-10 10 -10 23.5t10 22.5v0zM586 -51q-10 9 -10 22.5t10 23.5l317 317q10 9 23 9t23 -9v0q9 -10 9.5 -23.5t-9.5 -22.5l-317 -317q-10 -10 -23.5 -10t-22.5 10v0z
M893 289q0 -13 -9.5 -22.5t-22.5 -9.5h-765q-13 0 -22.5 9.5t-9.5 22.5v0q0 13 9.5 22.5t22.5 9.5h765q13 0 22.5 -9.5t9.5 -22.5v0z" />
    <glyph glyph-name="xiangyou1" unicode="&#xe610;" 
d="M269 -144l557 411q16 12 16 33t-16 33l-557 411q-20 15 -42.5 3.5t-22.5 -36.5v-822q0 -25 22.5 -36.5t42.5 3.5z" />
    <glyph glyph-name="shanchu" unicode="&#xe703;" 
d="M757 608l1 -530q0 -43 -40 -43l-405 1q-40 0 -40 40v532h-63v-532q0 -42 30 -71.5t71 -29.5h405q42 0 71.5 29.5t29.5 71.5v532h-60zM347 500v-402q0 -3 1 -7h60q1 4 1 7v402h-62zM618 498v-400q0 -3 1 -6q29 0 60 1v5v400h-61zM891 709h-181v67q1 68 -89 68h-215
q-87 0 -87 -66v-69h-185v-66h757v66zM649 709h-270v47q0 11 7 19.5t19 8.5l215 -1q12 0 20 -7.5t8 -18.5zM485 498v-400q0 -3 1 -6h59q1 3 1 6v400h-61z" />
    <glyph glyph-name="caiwutongji" unicode="&#xe6e0;" 
d="M119 -79v493q-41 -43 -42 -44q-11 -10 -22 -10q-13 0 -21.5 9t-7.5 21q0 9 10 20l454 473q10 10 22 10h3q9 -1 20 -11l334 -348l-45 49l-1 119h-54v-63l-20 21l-13 13l-2 3q-10 9 -14 14l-1 1l-1 3l-1 34q0 11 8 19t19 8h105q10 0 17.5 -8t7.5 -19v-199l108 -113
q15 -15 16 -26q1 -12 -9 -22q-8 -8 -19 -8q-12 0 -24 11l-41 43v-493h-786v0zM847 -25v499v1l-335 348l-332 -345q0 -1 -2 -3q-1 -1 -2 -1l1 -499h670v0zM507.5 42q-11.5 0 -19.5 8.5t-8 20.5v74h-69q-12 0 -20.5 8.5t-8.5 20.5t9 20t20 8h69v25h-95q-12 1 -19.5 9.5
t-7.5 19.5q0 24 25 30h67l-113 151q-9 9 -9 22q0 14 9.5 24t23.5 10t29 -19q8 -10 120 -161l126 164q11 16 27 16q14 0 23.5 -10t9.5 -24q0 -9 -9 -21l-2 -3q-4 -5 -118 -149h65q28 -6 28 -30q0 -12 -8.5 -20.5t-20.5 -8.5h-95v-25h70q12 0 20.5 -8t8.5 -20t-8.5 -20.5
t-20.5 -8.5h-70v-74q0 -12 -8.5 -20.5t-20 -8.5z" />
    <glyph glyph-name="weibiaoti1" unicode="&#xe6ee;" 
d="M576 -128q-4 0 -7 1l-451 140q-10 3 -18 9q-26 17 -41 50.5t-15 72.5q0 57 29 97q1 6 5 11l391 464q13 15 32 10l465 -141q11 -3 13 -13q3 -10 -4 -19l-391 -464q-13 -16 -32 -10l-463 144q-21 -33 -21 -79q0 -34 12.5 -62t32.5 -41l1 -1q4 -3 11 -5l2 -1l-3 -12l4 12
l448 -139q3 0 6 3l369 438v90h24v-93q-1 -7 -5 -13l-370 -438q-9 -11 -24 -11zM103 245l456 -142q3 -1 6 2l387 460l-458 139q-4 0 -7 -3zM753 419q-4 0 -10 1l-305 93q-12 3 -14 11l-2 6l4 6l60 71q6 7 21 3l305 -93q12 -3 14 -11l2 -6l-4 -6l-60 -71q-4 -4 -11 -4z
M455 533l294 -89l46 53l-294 89z" />
    <glyph glyph-name="zhaotoubiao" unicode="&#xe6ca;" 
d="M819 607v141h-607v-141h-212v-608h212v-147h607v147h205v608h-205v0zM212 39h-166v528h166v-528zM779 -108h-527v811h527v-811zM973 39h-154v528h154v-528zM682 505h-334v-49h334v49zM682 345h-334v-49h334v49zM682 141h-334v-49h334v49z" />
    <glyph glyph-name="zhaobiao" unicode="&#xe624;" horiz-adv-x="1449" 
d="M750.5 432q-41.5 0 -71 -29.5t-29.5 -71t29.5 -71t71 -29.5t71 29.5t29.5 71t-29.5 71t-71 29.5zM750 265q-28 0 -47.5 19.5t-19.5 47t19.5 47t47.5 19.5t47.5 -19.5t19.5 -47t-19.5 -47t-47.5 -19.5zM750 566q-97 0 -165.5 -68.5t-68.5 -165.5t68.5 -166t165.5 -69
t165.5 69t68.5 166t-68.5 165.5t-165.5 68.5zM750 131q-83 0 -142 58.5t-59 142t59 142t142 58.5t142 -58.5t59 -142t-59 -142t-142 -58.5zM1005 66q53 52 83 120.5t30 145.5q0 100 -49 184.5t-134 134t-185 49.5t-184.5 -49.5t-134 -134t-49.5 -184.5q0 -77 30 -145.5
t83 -120.5l-41 -74q-5 -5 -5 -12t5 -12t12 -5t12 5q2 3 3 7l39 69q101 -81 230 -81t230 81l39 -69q3 -12 16 -12q7 0 11.5 5t4.5 12t-5 12zM750 -3q-91 0 -168 44.5t-122 122t-45 168.5t45 168t122 121.5t168 44.5t168 -44.5t122 -121.5t45 -168t-45 -168.5t-122 -122
t-168 -44.5v0z" />
    <glyph glyph-name="gongyingshang" unicode="&#xe620;" 
d="M203 -44h-124q-5 0 -9.5 4.5t-4.5 9.5v330q0 6 4.5 10t9.5 4h124q6 0 10 -4t4 -10v-330q0 -5 -4 -9.5t-10 -4.5zM94 -15h95v301h-95v-301zM429.5 492q-48.5 0 -83 34t-34.5 82.5t34.5 83t83 34.5t83 -34.5t34.5 -83t-34.5 -82.5t-83 -34zM429.5 698q-36.5 0 -62.5 -26
t-26 -63t26 -63t62.5 -26t62.5 26t26 63t-26 63t-62.5 26zM718 286q-48 0 -82.5 34.5t-34.5 82.5t34.5 82.5t82.5 34.5t82.5 -34.5t34.5 -82.5t-34.5 -82.5t-82.5 -34.5zM718 492q-37 0 -63 -26t-26 -63t26 -63t63 -26t63 26t26 63t-26 63t-63 26zM656 39h-288q-6 0 -10 4
t-4 10t4 10t10 4h273q-4 20 -16 37.5t-28.5 29.5t-27 18t-19.5 10h-141q-7 0 -11 6q-16 21 -40.5 37t-45 23t-43.5 11.5t-32 5t-13 0.5q-6 0 -10.5 4t-4.5 10t4.5 10t10.5 4t15.5 -0.5t34.5 -5t47.5 -12.5t49 -25t45.5 -39h137q3 0 5 -1q6 -3 14.5 -7t27 -16.5t33 -27
t26 -38t11.5 -48.5q0 -6 -4 -10t-10 -4zM512 -126h-103q-2 0 -4 1q-64 21 -209 104q-12 7 -5 19t19 5q142 -80 201 -101h98l418 159q-26 60 -85 60h-227q-6 0 -10 4t-4 10t4 10t10 4h227q49 0 78.5 -30t37.5 -63q3 -12 -8 -16l-433 -165q-2 -1 -5 -1z" />
    <glyph glyph-name="saoma" unicode="&#xe6fb;" 
d="M928 352h-832q-13 0 -22.5 9.5t-9.5 22.5t9.5 22.5t22.5 9.5h832q13 0 22.5 -9.5t9.5 -22.5t-9.5 -22.5t-22.5 -9.5zM832 -32h-192q-13 0 -22.5 9.5t-9.5 22.5t9.5 22.5t22.5 9.5h192q13 0 22.5 9.5t9.5 22.5v160q0 13 9.5 22.5t22.5 9.5t22.5 -9.5t9.5 -22.5v-160
q0 -40 -28 -68t-68 -28zM352 -32h-160q-40 0 -68 28t-28 68v160q0 13 9.5 22.5t22.5 9.5t22.5 -9.5t9.5 -22.5v-160q0 -13 9.5 -22.5t22.5 -9.5h160q13 0 22.5 -9.5t9.5 -22.5t-9.5 -22.5t-22.5 -9.5zM128 512q-13 0 -22.5 9.5t-9.5 22.5v160q0 40 28 68t68 28h160
q13 0 22.5 -9.5t9.5 -22.5t-9.5 -22.5t-22.5 -9.5h-160q-13 0 -22.5 -9.5t-9.5 -22.5v-160q0 -13 -9.5 -22.5t-22.5 -9.5zM896 512q-13 0 -22.5 9.5t-9.5 22.5v160q0 13 -9.5 22.5t-22.5 9.5h-192q-13 0 -22.5 9.5t-9.5 22.5t9.5 22.5t22.5 9.5h192q40 0 68 -28t28 -68v-160
q0 -13 -9.5 -22.5t-22.5 -9.5z" />
    <glyph glyph-name="youjian" unicode="&#xe705;" 
d="M962 544v10q-2 10 -6 14q-3 5 -10.5 7t-13.5 2l-6 -1h-826q-24 3 -31 -8q-4 -4 -5 -14q-1 -5 -1 -10v-4v-310v0v-213q-1 -25 6 -31q6 -5 13.5 -7t11.5 -1h4h328h173h328q16 -3 29 8q6 5 6 31v213v0v310v4zM890 539l-348 -361q-12 -12 -29.5 -12t-29.5 12l-347 361h754z
M99 524l234 -243v0l-234 -242v485zM588 16h-150h-310l230 239l99 -103q23 -24 56 -24v0v0q32 0 55 24l99 103l230 -239h-309zM926 39l-233 242v0l233 243v-485z" />
    <glyph glyph-name="ping" unicode="&#xe645;" 
d="M605 454h120v49h-297v-49h122v-177h-144v-46h144v-164h55v164h141v46h-141v177zM375 164v207h-99v-49h49v-158q0 -29 -18 -44l33 -43q4 4 12 10l15 15q47 33 76 53q-8 21 -13 52zM400 442q-33 42 -68 82l-42 -27q37 -41 66 -86zM630 330l43 -24q31 47 58 98l-47 19
q-21 -45 -54 -93zM467 423l-43 -21q29 -43 54 -94l45 24q-18 33 -56 91zM510 748q-91 0 -173.5 -35t-142.5 -95t-95 -142.5t-35 -173.5t35 -174t95 -142.5t142.5 -95t173.5 -35.5t174 35.5t142.5 95t95 142.5t35.5 174t-35.5 173.5t-95 142.5t-142.5 95t-174 35zM808 4
q-58 -58 -134 -90q-78 -33 -163.5 -33t-164.5 33q-75 32 -133.5 90t-90.5 134q-33 78 -33 163.5t33 164.5q32 75 90.5 133.5t133.5 90.5q79 33 164.5 33t163.5 -33q76 -32 134 -90.5t90 -133.5q33 -79 33 -164.5t-33 -163.5q-32 -76 -90 -134z" />
    <glyph glyph-name="suoxiao" unicode="&#xe603;" 
d="M958 364h-892q-27 0 -45.5 -19t-18.5 -45t18.5 -45t45.5 -19h892q27 0 45.5 19t18.5 45t-18.5 45t-45.5 19z" />
    <glyph glyph-name="richeng" unicode="&#xe64a;" 
d="M887 646h-748q-31 0 -53 -22t-22 -53v-636q0 -30 22 -52t53 -22h748q31 0 52.5 22t21.5 52v636q0 31 -21.5 53t-52.5 22zM924 -65q0 -15 -11 -26t-26 -11h-748q-16 0 -26.5 11t-10.5 26v636q0 16 10.5 26.5t26.5 10.5h748q15 0 26 -10.5t11 -26.5v-636zM102 422h822v-38
h-822v38zM232 235h225q7 0 12.5 -5.5t5.5 -13.5t-5.5 -13.5t-12.5 -5.5h-225q-7 0 -12.5 5.5t-5.5 13.5t5.5 13.5t12.5 5.5zM232 85h225q7 0 12.5 -5.5t5.5 -13t-5.5 -13t-12.5 -5.5h-225q-7 0 -12.5 5.5t-5.5 13t5.5 13t12.5 5.5zM569 235h224q8 0 13.5 -5.5t5.5 -13.5
t-5.5 -13.5t-13.5 -5.5h-224q-8 0 -13.5 5.5t-5.5 13.5t5.5 13.5t13.5 5.5zM569 85h224q8 0 13.5 -5.5t5.5 -13t-5.5 -13t-13.5 -5.5h-224q-8 0 -13.5 5.5t-5.5 13t5.5 13t13.5 5.5zM270 758q8 0 13 -5.5t5 -13.5v-93h-37v93q0 8 5.5 13.5t13.5 5.5zM756 758q8 0 13 -5.5
t5 -13.5v-93h-37v93q0 8 5.5 13.5t13.5 5.5z" />
    <glyph glyph-name="fuwuzhongxingongchangrenzheng" unicode="&#xe6c4;" 
d="M904 645q13 0 22.5 -9.5t9.5 -22.5v-512q0 -13 -9.5 -22.5t-22.5 -9.5h-736q-13 0 -22.5 9.5t-9.5 22.5v512q0 13 9.5 22.5t22.5 9.5h736zM904 677h-736q-27 0 -45.5 -18.5t-18.5 -45.5v-512q0 -27 18.5 -45.5t45.5 -18.5h736q27 0 45.5 18.5t18.5 45.5v512
q0 27 -18.5 45.5t-45.5 18.5v0zM829 485l-181 -96v64q0 13 -9 22.5t-21 9.5l-178 -96v176q0 13 -8 22.5t-19 9.5h-170q-11 0 -19 -9.5t-8 -22.5v-416q0 -13 8 -22.5t19 -9.5h586q11 0 19 9.5t8 22.5v304q0 13 -8 22.5t-19 9.5zM424 501h-192v16h192v-16zM424 533h-192v16
h192v-16zM584 309q0 -7 -4.5 -11.5t-11.5 -4.5h-96q-7 0 -11.5 4.5t-4.5 11.5v16q0 7 4.5 11.5t11.5 4.5h96q7 0 11.5 -4.5t4.5 -11.5v-16zM792 309q0 -7 -4.5 -11.5t-11.5 -4.5h-96q-7 0 -11.5 4.5t-4.5 11.5v16q0 7 4.5 11.5t11.5 4.5h96q7 0 11.5 -4.5t4.5 -11.5v-16z
" />
    <glyph glyph-name="gongyingshangkanban" unicode="&#xe696;" horiz-adv-x="1025" 
d="M864 254q41 81 41 171q0 105 -52.5 194t-143 141t-197.5 52t-197.5 -52t-143 -141t-52.5 -194q0 -90 41 -171l-160 -272q101 -20 204 -42l136 -152l147 251q20 -2 25 -2t25 2l147 -251l136 152q46 10 97 20.5t79 16l28 5.5zM333 -96q-49 47 -96 92l-131 37l93 159
q84 -110 219 -143zM512 108q-87 0 -160.5 43t-116.5 116.5t-43 160.5t43 161t116.5 116.5t160.5 42.5t160.5 -42.5t116.5 -116.5t43 -161t-43 -160.5t-116.5 -116.5t-160.5 -43zM787 -4l-96 -92l-85 145q135 33 219 143l93 -159zM512 652q-93 0 -158.5 -65.5t-65.5 -158.5
t65.5 -158.5t158.5 -65.5t158.5 65.5t65.5 158.5t-65.5 158.5t-158.5 65.5zM512 268q-66 0 -113 47t-47 113t47 113t113 47t113 -47t47 -113t-47 -113t-113 -47z" />
    <glyph glyph-name="dingdan" unicode="&#xe64b;" 
d="M277 471h470q9 0 15 6t6 15t-6 15t-15 6h-470q-9 0 -15 -6t-6 -15t6 -15t15 -6zM277 343h470q9 0 15 6t6 15t-6 15t-15 6h-470q-9 0 -15 -6t-6 -15t6 -15t15 -6zM277 215h470q9 0 15 6t6 15t-6 15t-15 6h-470q-9 0 -15 -6t-6 -15t6 -15t15 -6zM277 87h470q9 0 15 6t6 15
t-6 15t-15 6h-470q-9 0 -15 -6t-6 -15t6 -15t15 -6zM347 734v0v0v0zM729 734v0v0v0zM832 769h-640q-26 0 -45 -18.5t-19 -45.5v-784q0 -27 19 -45.5t45 -18.5h393q60 -1 86 -22q5 -4 11 -4q8 0 14 6q4 6 3.5 13t-6.5 12q-36 29 -108 30h-393q-12 0 -20.5 8.5t-8.5 20.5v784
q0 12 8.5 20.5t20.5 8.5h155v0q33 -4 46 -33q2 -8 6 -17t18 -22t34 -16h1h172h2q19 3 33 16t18.5 22t6.5 17q12 29 45 33v0h103q12 0 20.5 -8.5t8.5 -20.5v-784q0 -12 -8.5 -20.5t-20.5 -8.5h-86q-7 0 -12 -5t-5 -12.5t5 -12.5t12 -5h86q26 0 45 18.5t19 45.5v784
q0 27 -19 45.5t-45 18.5zM651 714l-1 -2v-2q-1 -2 -2.5 -6.5t-9 -12.5t-17.5 -10h-166q-23 5 -28 29l-1 2v2q-5 11 -12 20h248q-7 -9 -11 -20z" />
    <glyph glyph-name="qiyezhongzhi" unicode="&#xe6c7;" 
d="M467 301q37 37 85 57l1 0.5l1 0.5v116l-93 55l-350 -122v-510h46v485l262 84v-232q19 36 48 66zM207 266l165 44v84l-165 -54v-74zM207 22l165 15v81l-165 -27v-69zM207 -100h165v85l-165 -12v-73zM207 143l165 32v81l-165 -42v-71zM633 378q11 1 22 1q54 0 104 -21
q5 -3 10 -5v230l-104 88l-346 -125v-31l314 102v-239zM652 309.5q-92 0.5 -157 -65t-65 -157.5t65 -157t157 -65t157.5 65t65.5 157t-65.5 157t-157.5 65.5zM772 4q8 -8 8 -18.5t-8 -18t-18.5 -7.5t-18.5 7l-83 83l-83 -83q-7 -7 -18 -7t-18.5 7.5t-7.5 18t7 18.5
q15 14 84 83q-65 64 -84 83q-7 8 -7 18.5t7.5 18.5t18 8t18.5 -8q28 -28 83 -84l84 84q7 8 18 8t18.5 -8t7.5 -18.5t-8 -18.5l-83 -83z" />
    <glyph glyph-name="gongyingshangguanli2" unicode="&#xe6e7;" 
d="M698 652h-454q-33 0 -56.5 -26t-23.5 -62v-622q0 -36 23.5 -61.5t56.5 -25.5h454q33 0 56.5 25.5t23.5 61.5v622q0 36 -23.5 62t-56.5 26zM737 -58q0 -19 -11.5 -32.5t-27.5 -13.5h-454q-16 0 -27.5 13.5t-11.5 32.5v622q0 19 11.5 33t27.5 14h454q16 0 27.5 -14
t11.5 -33v-622zM861 -99v772q0 33 -25.5 56.5t-61.5 23.5h-486v0q-8 0 -14 -6t-6 -14.5t6 -14.5t14 -6v0v0h486q19 0 33 -11.5t14 -27.5v-772v0v0q0 -8 6 -14t14.5 -6t14 6t5.5 14v0zM555 362q38 0 65 26.5t27 64.5t-27 64.5t-64.5 26.5t-64.5 -26.5t-27 -64.5q0 -24 12 -45
l-79 -78q-20 11 -44 11q-38 0 -64.5 -26.5t-26.5 -64t26.5 -64.5t64.5 -27q23 0 43 11l79 -79q-11 -20 -11 -43q0 -38 27 -64.5t64.5 -26.5t64.5 26.5t27 64.5t-27 64.5t-65 26.5q-29 0 -52 -17l-76 76q17 24 17 52t-16 52l76 76q23 -16 51 -16zM555.5 503
q20.5 0 35.5 -14.5t15 -35.5t-15 -35.5t-35.5 -14.5t-35.5 14.5t-15 35.5t15 35.5t35.5 14.5zM302 250.5q0 20.5 15 35.5t35.5 15t35.5 -15t15 -35.5t-15 -35.5t-35.5 -15t-35.5 15t-15 35.5zM555.5 98q20.5 0 35.5 -14.5t15 -35.5t-15 -35.5t-35.5 -14.5t-35.5 14.5
t-15 35.5t15 35.5t35.5 14.5z" />
    <glyph glyph-name="xianchangkaohe" unicode="&#xe6c5;" 
d="M932 -148l-94 175q38 42 38 98q0 61 -43 104t-104 43t-104 -43t-43 -104q0 -56 38 -98l-94 -175h182v128q10 -2 20.5 -2t21.5 2v-128h182zM862 -106h-70v98l14 14zM666 -106h-70l56 112l14 -14v-98zM728.5 20q-43.5 0 -74 31t-30.5 74.5t30.5 74t74 30.5t74.5 -30.5
t31 -74t-31 -74.5t-74.5 -31zM806 748h-742v-644h562q-2 10 -2 21t2 21h-520v560h658v-140h154v-420h-86q2 -10 2 -21t-2 -21h128v490zM806 608v70l70 -70h-70zM162 608h406v-42h-406v42zM162 412h406v-42h-406v42zM162 510h406v-42h-406v42z" />
    <glyph glyph-name="tupian" unicode="&#xe65d;" 
d="M924 -232h-813q-44 0 -76 32t-32 76v813q0 45 32 77t76 32h813q45 0 77 -32t32 -77v-813q0 -44 -32 -76t-77 -32zM57 -124q0 -22 16 -38t38 -16h173l220 304l-177 181q-18 17 -39 15t-35 -22l-196 -286v-138v0zM978 -44q0 -10 -6 -17q-8 -8 -19 -8q-10 0 -17 7l-31 29
q-8 8 -8 18.5t7 18.5t17.5 8.5t18.5 -7.5l31 -29q7 -7 7 -17v730q0 23 -15.5 39t-38.5 16h-813q-22 0 -38 -16t-16 -39v-602l163 237q24 36 64.5 39.5t71.5 -27.5l173 -176l42 58q25 34 65 38t70 -26l158 -149q6 -6 6.5 -14.5t-5.5 -14.5t-14 -6.5t-14 5.5l-158 150
q-17 16 -39.5 14t-36.5 -21l-269 -372h590q23 0 38.5 16t15.5 38v80v0zM748 364q-62 0 -105.5 43.5t-43.5 105.5t43.5 105.5t105.5 43.5t105.5 -43.5t43.5 -105.5t-43.5 -105.5t-105.5 -43.5zM748 608q-39 0 -67 -27.5t-28 -67t28 -67.5t67 -28t67 28t28 67.5t-28 67
t-67 27.5zM-87 -178h3h-0.5h-1h-0.5h-1z" />
    <glyph glyph-name="ceping" unicode="&#xe62d;" horiz-adv-x="1405" 
d="M1272 488l-343 -341l-251 -92l95 248l342 341q26 25 62.5 25t62.5 -25l32 -31q25 -26 25 -62.5t-25 -62.5v0zM754 130l150 56l9 8l-94 93l-8 -8l-57 -149v0zM850 318l94 -93l234 233l-94 93l-234 -233v0zM1241 582l-32 31q-13 13 -31 13t-31 -13l-32 -31l94 -93l32 31
q12 13 12 31t-12 31v0zM436 33v44h217l-16 -44h-201v0zM687 164h-251v44h267l-16 -44v0zM436 472h221v-44h-221v44v0zM657 296h-221v44h221v-44v0zM922 77v-44h-215l119 44h96v0zM811 721v-161q0 -19 13 -31.5t32 -12.5h68l-44 -44h-24q-37 0 -63 25.5t-26 62.5v197h-397
q-18 0 -31 -12.5t-13 -31.5v-834q0 -18 13 -31t31 -13h618q18 0 31 13t13 31v310l44 43v-353q0 -36 -25.5 -62t-62.5 -26h-618q-37 0 -62.5 26t-25.5 62v834q0 37 25.5 62.5t62.5 25.5h331h12h23h61l200 -213l-31 -31l-155 164v0zM811 721z" />
    </font>
</defs>
</svg>
